<?xml version="1.0" standalone="no"?>
<!DOCTYPE svg PUBLIC "-//W3C//DTD SVG 1.1//EN" "http://www.w3.org/Graphics/SVG/1.1/DTD/svg11.dtd" >
<svg xmlns="http://www.w3.org/2000/svg" xmlns:xlink="http://www.w3.org/1999/xlink" version="1.1">
<metadata>
Created by FontForge 20200314 at Mon Oct  5 09:52:13 2020
 By Robert Madole
Copyright (c) Font Awesome
</metadata>
<!-- Font Awesome Pro 5.15.1 by @fontawesome - https://fontawesome.com License - https://fontawesome.com/license (Commercial License) --><defs>
<font id="FontAwesome5Pro-Solid" horiz-adv-x="512" >
  <font-face 
    font-family="Font Awesome 5 Pro Solid"
    font-weight="900"
    font-stretch="normal"
    units-per-em="512"
    panose-1="2 0 5 3 0 0 0 0 0 0"
    ascent="448"
    descent="-64"
    bbox="-0.0155075 -64.0144 640.007 448.01"
    underline-thickness="25"
    underline-position="-50"
    unicode-range="U+0020-F8FF"
  />
    <missing-glyph />
    <glyph glyph-name="tint" unicode="&#xf043;" horiz-adv-x="352" 
d="M205.22 425.91c46.9902 -158.48 146.78 -200.07 146.78 -311.82c0 -98.4395 -78.7197 -178.09 -176 -178.09s-176 79.6504 -176 178.09c0 111.19 100.01 154.061 146.78 311.82c9 30.1201 50.5 28.7803 58.4395 0zM176 0c8.83984 0 16 7.16016 16 16s-7.16016 16 -16 16
c-44.1104 0 -80 35.8896 -80 80c0 8.83984 -7.16016 16 -16 16s-16 -7.16016 -16 -16c0 -61.75 50.25 -112 112 -112z" />
    <glyph glyph-name="cut" unicode="&#xf0c4;" horiz-adv-x="448" 
d="M278.06 192l166.421 -166.43c4.68945 -4.69043 4.68945 -12.29 0 -16.9707c-32.8008 -32.7998 -85.9902 -32.7998 -118.79 0l-115.511 115.521l-24.8594 -24.8604c4.30957 -10.9199 6.67969 -22.8096 6.67969 -35.2598c0 -53.0195 -42.9805 -96 -96 -96
s-96 42.9805 -96 96s42.9805 96 96 96c4.53027 0 8.99023 -0.320312 13.3604 -0.929688l32.9297 32.9297l-32.9297 32.9297c-4.37012 -0.609375 -8.82031 -0.929688 -13.3604 -0.929688c-53.0195 0 -96 42.9805 -96 96s42.9805 96 96 96s96 -42.9805 96 -96
c0 -12.4502 -2.37012 -24.3398 -6.67969 -35.2598l24.8594 -24.8604l115.511 115.521c32.7998 32.7998 85.9893 32.7998 118.79 0c4.68945 -4.68066 4.68945 -12.2803 0 -16.9707zM96 288c17.6396 0 32 14.3604 32 32s-14.3604 32 -32 32s-32 -14.3604 -32 -32
s14.3604 -32 32 -32zM96 32c17.6396 0 32 14.3604 32 32s-14.3604 32 -32 32s-32 -14.3604 -32 -32s14.3604 -32 32 -32z" />
    <glyph glyph-name="magic" unicode="&#xf0d0;" 
d="M224 352l-16 32l-32 16l32 16l16 32l16 -32l32 -16l-32 -16zM80 288l-26.6602 53.3301l-53.3398 26.6699l53.3398 26.6699l26.6602 53.3301l26.6602 -53.3301l53.3398 -26.6699l-53.3398 -26.6699zM432 160l26.6602 -53.3301l53.3398 -26.6699l-53.3398 -26.6699
l-26.6602 -53.3301l-26.6602 53.3301l-53.3398 26.6699l53.3398 26.6699zM502.62 353.77c12.5 -12.4893 12.5 -32.7598 0 -45.2393l-363.14 -363.15c-6.25 -6.25 -14.4404 -9.37012 -22.6309 -9.37012c-8.17969 0 -16.3691 3.12012 -22.6191 9.37012l-84.8506 84.8506
c-12.5 12.4893 -12.5 32.75 0 45.25l363.14 363.14c6.25 6.25977 14.4404 9.37988 22.6309 9.37988c8.18945 0 16.3799 -3.12012 22.6191 -9.37988zM359.45 244.54l86.5996 86.5996l-50.9102 50.9102l-86.5996 -86.5996z" />
    <glyph glyph-name="crop" unicode="&#xf125;" 
d="M488 96c13.25 0 24 -10.7402 24 -24v-48c0 -13.25 -10.75 -24 -24 -24h-40v-40c0 -13.25 -10.75 -24 -24 -24h-48c-13.25 0 -24 10.75 -24 24v282.75l-146.75 -146.75h114.75v-96h-232c-13.25 0 -24 10.75 -24 24v264h-40c-13.25 0 -24 10.75 -24 24v48
c0 13.2598 10.75 24 24 24h40v40c0 13.2598 10.75 24 24 24h48c13.25 0 24 -10.7402 24 -24v-282.75l146.75 146.75h-114.75v96h210.75l59.3096 59.3096c6.25 6.25 16.3809 6.25 22.6309 0l22.6191 -22.6191c6.25 -6.25 6.25 -16.3809 0 -22.6309l-59.3096 -59.3096v-242.75
h40z" />
    <glyph glyph-name="taxi" unicode="&#xf1ba;" 
d="M462 206.36c28.5898 -6.40039 50 -31.8301 50 -62.3604v-48c0 -23.6201 -12.9502 -44.0303 -32 -55.1201v-40.8799c0 -17.6699 -14.3301 -32 -32 -32h-32c-17.6699 0 -32 14.3301 -32 32v32h-256v-32c0 -17.6699 -14.3301 -32 -32 -32h-32c-17.6699 0 -32 14.3301 -32 32
v40.8799c-19.0498 11.0801 -32 31.4902 -32 55.1201v48c0 30.5303 21.4102 55.96 50 62.3604l22 84.8398c9.59961 35.2002 41.5996 60.7998 76.7998 60.7998h11.2002v32c0 17.6699 14.3301 32 32 32h128c17.6699 0 32 -14.3301 32 -32v-32h11.2002
c35.2002 0 67.2002 -25.5996 76.7998 -60.7998zM96 96c17.6699 0 32 14.3301 32 32s-14.3301 32 -32 32s-32 -14.3301 -32 -32s14.3301 -32 32 -32zM116.55 208h278.9l-17.3906 67.1396c-2.01953 7.37988 -9.37988 12.8604 -14.8496 12.8604h-214.4
c-5.46973 0 -12.8291 -5.48047 -15.0596 -13.6396zM416 96c17.6699 0 32 14.3301 32 32s-14.3301 32 -32 32s-32 -14.3301 -32 -32s14.3301 -32 32 -32z" />
    <glyph glyph-name="eye-dropper" unicode="&#xf1fb;" 
d="M50.75 114.75l126.63 126.61l128 -128l-126.64 -126.62c-12 -12 -28.2803 -18.7402 -45.25 -18.7402h-45.4902l-56 -32l-32 32l32 56v45.4902c0 16.9795 6.75 33.2598 18.75 45.2598zM483.88 419.88c37.5 -37.4902 37.5 -98.2695 -0.00976562 -135.75l-77.0898 -77.0898
l13.0996 -13.0996c9.37012 -9.37012 9.37012 -24.5703 0 -33.9404l-40.9697 -40.96c-9.29004 -9.30957 -24.5 -9.44043 -33.9404 0l-161.939 161.94c-9.37012 9.36914 -9.37012 24.5693 0 33.9395l40.9697 40.9697c9.29004 9.31055 24.5 9.44043 33.9404 0l13.0996 -13.0996
l77.0898 77.0898c37.4697 37.5 98.2803 37.5 135.75 0z" />
    <glyph glyph-name="paint-brush" unicode="&#xf1fc;" 
d="M167.02 138.66l88.0107 -73.3398c0.319336 -3.05078 0.969727 -6.02051 0.969727 -9.12988c0 -76.4209 -52.1396 -120.19 -128 -120.19c-90.0703 0 -128 72.3799 -128.01 154.73c9.79004 -6.68066 44.1396 -34.3506 55.25 -34.3506
c6.58984 0 12.2402 3.77051 14.5898 9.98047c20.6602 54.4395 57.0703 69.7197 97.1895 72.2998zM457.89 448c28.1104 0 54.1104 -20.6396 54.1104 -49.5498c0 -16.1406 -6.51953 -31.6406 -13.9004 -45.9902c-113.05 -210.99 -149.05 -256.46 -211.159 -256.46
c-7.75 0 -15.1807 1.23047 -22.3906 3.03027l-63.8193 53.1797c-5.48047 11.9404 -8.73047 25 -8.73047 38.7002c0 53.75 21.2695 58.04 225.68 240.64c10.8398 9.74023 25.0508 16.4502 40.21 16.4502z" />
    <glyph glyph-name="bus" unicode="&#xf207;" 
d="M488 320c13.25 0 24 -10.7402 24 -24v-80c0 -13.25 -10.75 -24 -24 -24h-8v-166.4c0 -12.7998 -9.59961 -25.5996 -25.5996 -25.5996h-6.40039v-32c0 -17.6699 -14.3301 -32 -32 -32h-32c-17.6699 0 -32 14.3301 -32 32v32h-192v-32c0 -17.6699 -14.3301 -32 -32 -32h-32
c-17.6699 0 -32 14.3301 -32 32v32c-17.6699 0 -32 14.3301 -32 32v160h-8c-13.25 0 -24 10.75 -24 24v80c0 13.2598 10.75 24 24 24h8v48c0 44.7998 99.2002 80 224 80s224 -35.2002 224 -80v-48h8zM112 48c17.6699 0 32 14.3301 32 32s-14.3301 32 -32 32
s-32 -14.3301 -32 -32s14.3301 -32 32 -32zM128 160h256c17.6699 0 32 14.3301 32 32v128c0 17.6699 -14.3301 32 -32 32h-256c-17.6699 0 -32 -14.3301 -32 -32v-128c0 -17.6699 14.3301 -32 32 -32zM400 48c17.6699 0 32 14.3301 32 32s-14.3301 32 -32 32
s-32 -14.3301 -32 -32s14.3301 -32 32 -32z" />
    <glyph glyph-name="bed" unicode="&#xf236;" horiz-adv-x="640" 
d="M176 192c-44.1104 0 -80 35.8896 -80 80s35.8896 80 80 80s80 -35.8896 80 -80s-35.8896 -80 -80 -80zM528 320c61.8604 0 112 -50.1396 112 -112v-192c0 -8.83984 -7.16016 -16 -16 -16h-32c-8.83984 0 -16 7.16016 -16 16v48h-512v-48c0 -8.83984 -7.16016 -16 -16 -16
h-32c-8.83984 0 -16 7.16016 -16 16v352c0 8.83984 7.16016 16 16 16h32c8.83984 0 16 -7.16016 16 -16v-208h224v144c0 8.83984 7.16016 16 16 16h224z" />
    <glyph glyph-name="map" unicode="&#xf279;" horiz-adv-x="576" 
d="M0 330.34c0.00292969 13.4697 8.32617 24.9932 20.1201 29.71l139.88 55.9502v-384l-138.06 -62.8398c-10.5107 -4.2002 -21.9404 3.54004 -21.9404 14.8594v346.32zM192 32v384l192 -64v-384zM554.06 414.84c10.5107 4.2002 21.9404 -3.54004 21.9404 -14.8594v-346.32
c0 -13.4707 -8.32422 -24.9951 -20.1201 -29.71l-139.88 -55.9502v384z" />
    <glyph glyph-name="pen" unicode="&#xf304;" 
d="M290.74 354.76l128.02 -128.02l-277.99 -277.99l-114.14 -12.5996c-15.2803 -1.69043 -28.1895 11.2295 -26.4902 26.5098l12.7002 114.22zM497.94 373.82c18.75 -18.75 18.75 -49.1504 0 -67.9102l-56.5508 -56.5498l-128.02 128.02l56.5498 56.5498
c18.75 18.75 49.1602 18.75 67.9102 0z" />
    <glyph glyph-name="pen-alt" unicode="&#xf305;" 
d="M497.94 373.83c18.75 -18.7598 18.75 -49.1602 0 -67.9102l-56.5508 -56.5498l-128.02 128.02l56.5498 56.5508c18.75 18.75 49.1602 18.75 67.9102 0zM251.14 394.36l84.8506 -84.8506l82.7695 -82.7695l-196.79 -196.79
c-51.1611 -51.1592 -119.559 -85.4326 -195.34 -93.7998c-15.2803 -1.69043 -28.1895 11.2295 -26.4902 26.5098l0.0302734 0.229492c8.42188 75.6777 42.6777 143.978 93.7803 195.08l151.56 151.55l-22.6299 22.6201l-101.82 -101.819
c-6.25 -6.25 -16.3799 -6.25 -22.6299 0l-22.6299 22.6299c-6.25 6.24023 -6.25 16.3701 0 22.6201l118.78 118.79c15.6201 15.6201 40.9395 15.6201 56.5596 0z" />
    <glyph glyph-name="feather" unicode="&#xf52d;" 
d="M467.14 403.16c50.5703 -50.5205 61.7002 -124.9 16.2607 -199.36l-131.54 -43.7998h97.7793c-9.92969 -10.6797 3.68066 3.07031 -46.3096 -46.8604l-147.57 -49.1396h98.1904c-74.9502 -73.1104 -194.53 -70.6504 -246.83 -54.9404l-66.1006 -66.0293
c-9.37988 -9.37012 -24.5996 -9.37012 -33.9795 0s-9.37988 24.5693 0 33.9395l259.52 259.25c6.25 6.25 6.25 16.3799 0 22.6299s-16.3896 6.25 -22.6494 0l-178.44 -178.25c-6.75 60.3408 3.18066 150.78 63.6406 211.17c24.7695 24.7402 7.13965 7.14062 85.75 85.6602
c90.6094 90.5107 189.729 88.21 252.279 25.7305z" />
    <glyph glyph-name="archway" unicode="&#xf557;" horiz-adv-x="576" 
d="M560 0c8.83984 0 16 -7.16016 16 -16v-32c0 -8.83984 -7.16016 -16 -16 -16h-159.98c-8.83984 0 -16 7.16016 -16 16v16l-0.0195312 160c0 53.0195 -42.9805 96 -96 96s-96 -42.9805 -96 -96v-176c0 -8.83984 -7.16016 -16 -16 -16h-159.98
c-8.83984 0 -16 7.16016 -16 16v32c0 8.83984 7.16016 16 16 16h15.9805v352h512v-352h16zM560 448c8.83984 0 16 -7.16016 16 -16v-32c0 -8.83984 -7.16016 -16 -16 -16h-544c-8.83984 0 -16 7.16016 -16 16v32c0 8.83984 7.16016 16 16 16h544z" />
    <glyph glyph-name="atlas" unicode="&#xf558;" horiz-adv-x="448" 
d="M318.38 240c-5.28027 -31.2197 -25.5898 -57.1699 -53.2998 -70.4102c7.66992 19.0605 12.7197 43.3799 14.21 70.4102h39.0898zM318.38 272h-39.0898c-1.49023 27.0303 -6.53027 51.3496 -14.21 70.4102c27.71 -13.2402 48.0098 -39.1904 53.2998 -70.4102zM224 350.69
c7.69043 -7.4502 20.7695 -34.4307 23.4404 -78.6904h-46.8701c2.66016 44.2695 15.7393 71.2402 23.4297 78.6904zM182.92 342.41c-7.67969 -19.0605 -12.7197 -43.3799 -14.21 -70.4102h-39.0898c5.28027 31.2197 25.5898 57.1699 53.2998 70.4102zM182.92 169.59
c-27.71 13.2402 -48.0195 39.1904 -53.2998 70.4102h39.0898c1.49023 -27.0303 6.53027 -51.3496 14.21 -70.4102zM247.43 240c-2.66016 -44.2598 -15.7393 -71.2402 -23.4395 -78.6904c-7.69043 7.4502 -20.7705 34.4307 -23.4307 78.6904h46.8701zM448 89.5996
c0 -9.59961 -3.2002 -16 -9.59961 -19.1992c-3.2002 -12.8008 -3.2002 -57.6006 0 -73.6006c6.39941 -6.39941 9.59961 -12.7998 9.59961 -19.2002v-16c0 -16 -12.7998 -25.5996 -25.5996 -25.5996h-326.4c-54.4004 0 -96 41.5996 -96 96v320c0 54.4004 41.5996 96 96 96
h326.4c16 0 25.5996 -9.59961 25.5996 -25.5996v-332.801zM224 384c-70.6904 0 -128 -57.3096 -128 -128s57.3096 -128 128 -128s128 57.3096 128 128s-57.3096 128 -128 128zM384 0v64h-288c-16 0 -32 -12.7998 -32 -32s12.7998 -32 32 -32h288z" />
    <glyph glyph-name="backspace" unicode="&#xf55a;" horiz-adv-x="640" 
d="M576 384c35.3496 0 64 -28.6504 64 -64v-256c0 -35.3496 -28.6504 -64 -64 -64h-370.75c-16.9697 0 -33.25 6.75 -45.25 18.75l-150.63 150.63c-12.5 12.4902 -12.5 32.75 0 45.25l150.63 150.62c11.5801 11.5869 27.5869 18.75 45.2471 18.75h0.0126953h370.74z
M491.31 129.94l-62.0596 62.0596l62.0596 62.0596c6.25 6.25 6.25 16.3809 0 22.6309l-22.6191 22.6191c-6.25 6.25 -16.3809 6.25 -22.6309 0l-62.0596 -62.0596l-62.0596 62.0596c-6.25 6.25 -16.3809 6.25 -22.6309 0l-22.6191 -22.6191
c-6.25 -6.25 -6.25 -16.3809 0 -22.6309l62.0596 -62.0596l-62.0596 -62.0596c-6.25 -6.25 -6.25 -16.3809 0 -22.6309l22.6191 -22.6191c6.25 -6.25 16.3809 -6.25 22.6309 0l62.0596 62.0596l62.0596 -62.0596c6.25 -6.25 16.3809 -6.25 22.6309 0l22.6191 22.6191
c6.25 6.25 6.25 16.3809 0 22.6309z" />
    <glyph glyph-name="bezier-curve" unicode="&#xf55b;" horiz-adv-x="640" 
d="M368 416c17.6699 0 32 -14.3301 32 -32v-96c0 -17.6699 -14.3301 -32 -32 -32h-96c-17.6699 0 -32 14.3301 -32 32v96c0 17.6699 14.3301 32 32 32h96zM208 360v-72c0 -9.4502 2.17969 -18.3604 5.87988 -26.4404c-34.2695 -24.3496 -59.7402 -59.9492 -71.04 -101.56
h-49.3994c13.6797 64.6797 54.1699 119.48 109.54 152h-79.7305c-9.5 -23.4404 -32.4102 -40 -59.25 -40c-35.3398 0 -64 28.6504 -64 64s28.6602 64 64 64c26.8398 0 49.75 -16.5596 59.25 -40h84.75zM160 128c17.6699 0 32 -14.3301 32 -32v-96
c0 -17.6699 -14.3301 -32 -32 -32h-96c-17.6699 0 -32 14.3301 -32 32v96c0 17.6699 14.3301 32 32 32h96zM576 400c35.3398 0 64 -28.6504 64 -64s-28.6602 -64 -64 -64c-26.8398 0 -49.75 16.5596 -59.25 40h-79.7305c55.3701 -32.5195 95.8604 -87.3203 109.54 -152
h-49.3994c-11.2998 41.6104 -36.7705 77.21 -71.04 101.56c3.68945 8.08008 5.87988 16.9902 5.87988 26.4404v72h84.75c9.5 23.4404 32.4102 40 59.25 40zM576 128c17.6699 0 32 -14.3301 32 -32v-96c0 -17.6699 -14.3301 -32 -32 -32h-96c-17.6699 0 -32 14.3301 -32 32
v96c0 17.6699 14.3301 32 32 32h96z" />
    <glyph glyph-name="bong" unicode="&#xf55c;" horiz-adv-x="448" 
d="M302.5 -64h-221c-23.1699 0 -44.4199 12.5801 -56 32.6602c-16.1904 28.0703 -25.5 60.5898 -25.5 95.3398c0 71.0303 38.6699 132.9 96 166.11v153.93l-15.9697 -0.0205078c-8.85059 -0.00976562 -16.0303 7.16016 -16.0205 16.0107l0.0400391 31.7295
c0.00976562 8.82031 7.16016 15.9707 15.9805 15.9805l223.939 0.259766c8.85059 0.00976562 16.0303 -7.16992 16.0205 -16.0195l-0.0400391 -31.7207c-0.00976562 -8.81934 -7.16016 -15.9697 -15.9805 -15.9795l-15.9697 -0.0205078v-154.16
c14.1201 -8.17969 27.0898 -18.1396 38.6504 -29.5098l39.4092 39.4102l-9.37988 9.37988c-6.25 6.25 -6.25 16.3799 0 22.6299l11.3105 11.3105c6.25 6.25 16.3799 6.25 22.6299 0l52.6895 -52.6904c6.25 -6.25 6.25 -16.3799 0 -22.6299l-11.2998 -11.3203
c-6.25 -6.25 -16.3799 -6.25 -22.6299 0l-9.37988 9.37988l-43.4404 -43.4395c17.3604 -28.8105 27.4404 -62.5 27.4404 -98.6201c0 -34.75 -9.30957 -67.2598 -25.5 -95.3398c-11.5703 -20.0801 -32.8203 -32.6602 -56 -32.6602zM120.06 188.57
c-24.8096 -14.3701 -44.1094 -35.7305 -56.5596 -60.5703h257c-12.4404 24.8398 -31.75 46.2002 -56.5596 60.5703l-23.9404 13.8701v181.76l-96 -0.110352v-181.649z" />
    <glyph glyph-name="brush" unicode="&#xf55d;" horiz-adv-x="384" 
d="M352 448c17.6699 0 32 -14.3301 32 -32v-224h-384v224c0 17.6699 14.3301 32 32 32h320zM0 128v32h384v-32c0 -35.3496 -28.6602 -64 -64 -64h-64v-64c0 -35.3496 -28.6602 -64 -64 -64s-64 28.6504 -64 64v64h-64c-35.3398 0 -64 28.6504 -64 64zM192 24
c-13.25 0 -24 -10.7402 -24 -24c0 -13.25 10.75 -24 24 -24s24 10.75 24 24c0 13.2598 -10.75 24 -24 24z" />
    <glyph glyph-name="bus-alt" unicode="&#xf55e;" 
d="M488 320c13.25 0 24 -10.7402 24 -24v-80c0 -13.25 -10.75 -24 -24 -24h-8v-166.4c0 -12.7998 -9.59961 -25.5996 -25.5996 -25.5996h-6.40039v-32c0 -17.6699 -14.3301 -32 -32 -32h-32c-17.6699 0 -32 14.3301 -32 32v32h-192v-32c0 -17.6699 -14.3301 -32 -32 -32h-32
c-17.6699 0 -32 14.3301 -32 32v32c-17.6699 0 -32 14.3301 -32 32v160h-8c-13.25 0 -24 10.75 -24 24v80c0 13.2598 10.75 24 24 24h8v48c0 44.7998 99.2002 80 224 80s224 -35.2002 224 -80v-48h8zM160 376v-16c0 -4.41992 3.58008 -8 8 -8h176c4.41992 0 8 3.58008 8 8
v16c0 4.41992 -3.58008 8 -8 8h-176c-4.41992 0 -8 -3.58008 -8 -8zM112 48c17.6699 0 32 14.3301 32 32s-14.3301 32 -32 32s-32 -14.3301 -32 -32s14.3301 -32 32 -32zM240 160v160h-112c-17.6699 0 -32 -14.3301 -32 -32v-96c0 -17.6699 14.3301 -32 32 -32h112zM272 160
h112c17.6699 0 32 14.3301 32 32v96c0 17.6699 -14.3301 32 -32 32h-112v-160zM400 48c17.6699 0 32 14.3301 32 32s-14.3301 32 -32 32s-32 -14.3301 -32 -32s14.3301 -32 32 -32z" />
    <glyph glyph-name="cannabis" unicode="&#xf55f;" 
d="M503.47 87.75c5.24023 -2.75977 8.52051 -8.20996 8.53027 -14.1504c0.00976562 -5.92969 -3.26953 -11.3691 -8.50977 -14.1494c-2.4502 -1.29004 -60.7705 -31.7197 -133.49 -31.7197c-6.12988 0 -11.96 0.0996094 -17.5 0.30957
c11.3604 -22.2305 16.5195 -38.3096 16.8096 -39.2197c1.80078 -5.68066 0.290039 -11.8906 -3.90918 -16.1104c-2.90137 -2.91113 -6.91699 -4.70801 -11.3477 -4.70801c-1.6543 0 -3.25098 0.250977 -4.75293 0.717773c-1.83008 0.580078 -37.7197 11.9902 -77.2998 39.29
v-64.0098c0 -4.41992 -3.58008 -8 -8 -8h-16c-4.41992 0 -8 3.58008 -8 8v64.0195c-39.5801 -27.2998 -75.4697 -38.7197 -77.2998 -39.2891c-1.50195 -0.466797 -3.10059 -0.724609 -4.75586 -0.724609c-4.43066 0 -8.44336 1.80273 -11.3447 4.71387
c-4.19922 4.2207 -5.70996 10.4307 -3.90918 16.1104c0.290039 0.910156 5.43945 16.9902 16.8096 39.2197c-5.54004 -0.209961 -11.3604 -0.30957 -17.5 -0.30957c-72.7305 0 -131.04 30.4297 -133.49 31.7197c-5.06836 2.68652 -8.52441 7.99805 -8.52441 14.1299
c0 6.13965 3.46484 11.4766 8.54492 14.1602c1.56934 0.820312 32.3896 16.8896 76.7793 25.8096c-64.25 75.1201 -84.0498 161.671 -84.9297 165.641c-0.25 1.12207 -0.384766 2.28125 -0.384766 3.47754c0 4.40723 1.78711 8.39941 4.6748 11.292
c3.03027 3.04004 7.12012 4.7002 11.3203 4.7002c1.14941 0 2.2998 -0.129883 3.43945 -0.379883c3.89062 -0.860352 86.5508 -19.5996 160.58 -79.7598c0 1.45996 -0.00976562 2.92969 -0.00976562 4.39941c0 118.79 59.9805 213.721 62.5303 217.7
c2.93945 4.58984 8.01953 7.37012 13.4697 7.37012c5.65625 0 10.6211 -2.92969 13.46 -7.37012c2.5498 -3.97949 62.5303 -98.9102 62.5303 -217.7c0 -1.46973 0 -2.93945 -0.00976562 -4.39941c74.0391 60.1699 156.699 78.9102 160.579 79.7598
c1.15039 0.259766 2.30078 0.379883 3.44043 0.379883c4.2002 0 8.29004 -1.66016 11.3203 -4.7002c3.85938 -3.87012 5.47949 -9.43945 4.2998 -14.7695c-0.879883 -3.96973 -20.6797 -90.5205 -84.9297 -165.641c44.3896 -8.91992 75.2197 -24.9893 76.7793 -25.8096z" />
    <glyph glyph-name="concierge-bell" unicode="&#xf562;" 
d="M288 317.46c108.51 -15.5703 192 -108.64 192 -221.46h-448c0 112.82 83.4902 205.89 192 221.46v18.54h-16c-8.83984 0 -16 7.16016 -16 16v16c0 8.83984 7.16016 16 16 16h96c8.83984 0 16 -7.16016 16 -16v-16c0 -8.83984 -7.16016 -16 -16 -16h-16v-18.54zM496 64
c8.83984 0 16 -7.16016 16 -16v-32c0 -8.83984 -7.16016 -16 -16 -16h-480c-8.83984 0 -16 7.16016 -16 16v32c0 8.83984 7.16016 16 16 16h480z" />
    <glyph glyph-name="cookie" unicode="&#xf563;" 
d="M510.37 193.21c4.37988 -27.6602 -0.110352 -56 -12.8203 -80.96l-35.0996 -68.8701c-12.7021 -24.9268 -32.8652 -45.0938 -57.79 -57.7998l-69.1201 -35.21c-24.8301 -12.6396 -53.0098 -17.1104 -80.5205 -12.75l-76.6992 12.1396
c-28.1211 4.45801 -53.4463 17.7891 -72.71 37.0498l-54.7607 54.75c-19.3213 19.3281 -32.6924 44.7373 -37.1592 72.9502l-12.0801 76.2705c-1.07715 6.79883 -1.55371 13.7725 -1.55371 20.8721c0 21.6162 5.18359 42.0303 14.373 60.0674l35.1006 68.8799
c12.6992 24.9297 32.8633 45.0967 57.79 57.8008l69.1201 35.21c24.8291 12.6494 53.0098 17.1201 80.5195 12.7598l76.7002 -12.1504c27.5303 -4.34961 52.9795 -17.3301 72.71 -37.0498l54.7598 -54.75c19.3213 -19.3281 32.6924 -44.7363 37.1602 -72.9502zM176 80
c17.6699 0 32 14.3301 32 32s-14.3301 32 -32 32s-32 -14.3301 -32 -32s14.3301 -32 32 -32zM208 240c17.6699 0 32 14.3301 32 32s-14.3301 32 -32 32s-32 -14.3301 -32 -32s14.3301 -32 32 -32zM368 112c17.6699 0 32 14.3301 32 32s-14.3301 32 -32 32
s-32 -14.3301 -32 -32s14.3301 -32 32 -32z" />
    <glyph glyph-name="cookie-bite" unicode="&#xf564;" 
d="M510.52 192.18c4.10059 -27.3301 -0.349609 -55.2695 -12.9092 -79.9102l-35.1006 -68.8799c-12.6992 -24.9316 -32.8623 -45.1025 -57.79 -57.8096l-69.1299 -35.21c-24.8301 -12.6504 -53.0195 -17.1201 -80.5303 -12.7598l-76.71 12.1494
c-28.123 4.45801 -53.4482 17.793 -72.71 37.0605l-54.7695 54.7598c-19.3223 19.332 -32.6934 44.7441 -37.1602 72.96l-12.0801 76.2695c-1.07617 6.7998 -1.55273 13.7734 -1.55273 20.874c0 21.6182 5.18262 42.0361 14.373 60.0762l35.0996 68.8799
c12.6963 24.9346 32.8613 45.1055 57.79 57.8105l69.1299 35.2197c24.5898 12.5205 52.46 16.96 79.7207 12.8203c0.859375 -69.96 57.6895 -126.45 127.859 -126.45c0 -70.1699 56.5 -127.01 126.47 -127.86zM176 80c17.6699 0 32 14.3301 32 32s-14.3301 32 -32 32
s-32 -14.3301 -32 -32s14.3301 -32 32 -32zM208 240c17.6699 0 32 14.3301 32 32s-14.3301 32 -32 32s-32 -14.3301 -32 -32s14.3301 -32 32 -32zM368 112c17.6699 0 32 14.3301 32 32s-14.3301 32 -32 32s-32 -14.3301 -32 -32s14.3301 -32 32 -32z" />
    <glyph glyph-name="crop-alt" unicode="&#xf565;" 
d="M488 96c13.25 0 24 -10.7402 24 -24v-48c0 -13.25 -10.75 -24 -24 -24h-40v-40c0 -13.25 -10.75 -24 -24 -24h-48c-13.25 0 -24 10.75 -24 24v328h-160v96h224c17.6699 0 32 -14.3301 32 -32v-256h40zM160 424v-328h160v-96h-224c-17.6699 0 -32 14.3301 -32 32v256h-40
c-13.25 0 -24 10.75 -24 24v48c0 13.2598 10.75 24 24 24h40v40c0 13.2598 10.75 24 24 24h48c13.25 0 24 -10.7402 24 -24z" />
    <glyph glyph-name="digital-tachograph" unicode="&#xf566;" horiz-adv-x="640" 
d="M608 352c17.6699 0 32 -14.3301 32 -32v-256c0 -17.6699 -14.3301 -32 -32 -32h-576c-17.6699 0 -32 14.3301 -32 32v256c0 17.6699 14.3301 32 32 32h576zM304 96v8c0 4.41992 -3.58008 8 -8 8h-224c-4.41992 0 -8 -3.58008 -8 -8v-8c0 -4.41992 3.58008 -8 8 -8h224
c4.41992 0 8 3.58008 8 8zM72 160c0 -4.41992 3.58008 -8 8 -8h16c4.41992 0 8 3.58008 8 8v16c0 4.41992 -3.58008 8 -8 8h-16c-4.41992 0 -8 -3.58008 -8 -8v-16zM136 160c0 -4.41992 3.58008 -8 8 -8h16c4.41992 0 8 3.58008 8 8v16c0 4.41992 -3.58008 8 -8 8h-16
c-4.41992 0 -8 -3.58008 -8 -8v-16zM200 160c0 -4.41992 3.58008 -8 8 -8h16c4.41992 0 8 3.58008 8 8v16c0 4.41992 -3.58008 8 -8 8h-16c-4.41992 0 -8 -3.58008 -8 -8v-16zM264 160c0 -4.41992 3.58008 -8 8 -8h16c4.41992 0 8 3.58008 8 8v16c0 4.41992 -3.58008 8 -8 8
h-16c-4.41992 0 -8 -3.58008 -8 -8v-16zM304 224v48c0 8.83984 -7.16016 16 -16 16h-208c-8.83984 0 -16 -7.16016 -16 -16v-48c0 -8.83984 7.16016 -16 16 -16h208c8.83984 0 16 7.16016 16 16zM576 96v8c0 4.41992 -3.58008 8 -8 8h-224c-4.41992 0 -8 -3.58008 -8 -8v-8
c0 -4.41992 3.58008 -8 8 -8h224c4.41992 0 8 3.58008 8 8z" />
    <glyph glyph-name="drafting-compass" unicode="&#xf568;" 
d="M457.01 103.58l54.9805 -95.2305l-7.02051 -58.25c-1.2793 -10.5898 -12.3594 -16.9893 -22.1699 -12.7998l-53.9502 23.04l-54.3799 94.1904c29.9102 11.8701 57.4902 28.7197 82.54 49.0498zM499.5 198.14c-52.6201 -83.1299 -144.45 -134.14 -243.5 -134.14
c-35.3799 0 -69.8701 6.71973 -102.06 18.96l-70.8008 -122.63l-53.9492 -23.04c-9.81055 -4.19043 -20.8906 2.20996 -22.1709 12.7998l-7.01953 58.25l71.2803 123.46c-21.29 17.8105 -40.4102 38.3799 -55.9805 62.0205
c-4.99023 7.56934 -2.20996 17.9297 5.64062 22.4697l27.75 16.0703c7.40918 4.29004 16.5898 1.76953 21.3799 -5.33008c9.71973 -14.4102 21.1299 -27.3906 33.6797 -39l68.2998 118.31c-7.43945 13.6299 -12.0498 29.0303 -12.0498 45.6602c0 53.0195 42.9805 96 96 96
s96 -42.9805 96 -96c0 -16.6299 -4.61035 -32.0303 -12.0596 -45.6602l51.79 -89.71c-23.0508 -23.1699 -51.3809 -39.96 -82.6104 -48.9199l-51.0898 88.5c-0.69043 -0.0195312 -1.33984 -0.209961 -2.04004 -0.209961s-1.33984 0.19043 -2.04004 0.209961
l-67.3604 -116.68c22.1797 -7.28027 45.4805 -11.5303 69.4102 -11.5303c76.25 0 147.01 38.8496 188.12 102.38c4.64941 7.17969 13.7803 9.87012 21.2598 5.71973l28.0703 -15.5693c7.93945 -4.40039 10.9102 -14.7207 6.0498 -22.3906zM256 384
c-17.6699 0 -32 -14.3301 -32 -32s14.3301 -32 32 -32s32 14.3301 32 32s-14.3301 32 -32 32z" />
    <glyph glyph-name="drum-steelpan" unicode="&#xf56a;" horiz-adv-x="576" 
d="M288 416c159.06 0 288 -57.3096 288 -128v-192c0 -70.6904 -128.94 -128 -288 -128s-288 57.3096 -288 128v192c0 70.6904 128.94 128 288 128zM205.01 257.64c5.11035 19.0605 2.49023 38.96 -7.37012 56.0508l-25.5996 44.3398
c-73.9297 -13.6406 -124.04 -39.8701 -124.04 -70.0303c0 -30.7803 52.2305 -57.46 128.7 -70.8398c13.7695 9.91016 23.8594 23.8701 28.3096 40.4795zM288 208c21.0801 0 41.4102 1 60.8896 2.7002c-8.05957 26.1299 -32.1494 45.2998 -60.8896 45.2998
s-52.8301 -19.1699 -60.8896 -45.2998c19.4795 -1.7002 39.8096 -2.7002 60.8896 -2.7002zM352 352v13.04c-20.4004 1.87988 -41.7998 2.95996 -64 2.95996s-43.5996 -1.08008 -64 -2.95996v-13.04c0 -35.29 28.71 -64 64 -64s64 28.71 64 64zM398.93 217.1
c76.6699 13.3604 129.07 40.0703 129.07 70.9004c0 30.21 -50.2803 56.5 -124.44 70.0996l-25.6494 -44.4199c-9.87012 -17.0801 -12.4902 -36.9795 -7.37988 -56.04c4.45996 -16.6396 14.5898 -30.6299 28.3994 -40.54z" />
    <glyph glyph-name="feather-alt" unicode="&#xf56b;" 
d="M512 448c-1.80957 -26.2598 -11.71 -132.86 -53.6201 -234.79l-106.54 -53.21h81.1406c-9.08008 -16.4102 -19.2002 -32.2305 -30.4502 -47.1201l-146.79 -48.8799h100.95c-35.5605 -30.0703 -79.1006 -51.0996 -132.58 -56.54
c-41.8105 -4.83008 -83.8701 -7.21973 -125.96 -7.36035l-57.1309 -57.0693c-9.38965 -9.37012 -24.5996 -9.37012 -33.9795 0s-9.37988 24.5693 0 33.9395l259.5 259.24c6.25 6.25 6.25 16.3799 0 22.6299s-16.4004 6.25 -22.6504 0l-178.87 -178.689
c1.15039 26.7998 2.90039 53.5801 5.99023 80.2393c25.4307 249.41 389.21 284.051 440.99 287.61z" />
    <glyph glyph-name="fill" unicode="&#xf575;" 
d="M502.63 230.94c12.4902 -12.5 12.4902 -32.7607 0 -45.2607l-221.57 -221.569c-18.75 -18.75 -43.3096 -28.1201 -67.8799 -28.1201c-24.5596 0 -49.1201 9.37988 -67.8701 28.1201l-117.189 117.189c-37.4902 37.4902 -37.4902 98.2598 0 135.75l94.7598 94.7598
l-86.1895 86.1807c-6.24023 6.25 -6.24023 16.3799 0 22.6299l22.6191 22.6104c6.24023 6.25 16.3809 6.25 22.6201 0l86.1807 -86.1807l81.5801 81.5801c6.23926 6.25 14.4297 9.37012 22.6191 9.37012c8.19043 0 16.3809 -3.12012 22.6309 -9.37012zM386.41 159.97
l48.3496 48.3398l-162.45 162.44l-58.9492 -58.9502l58.6094 -58.5996c12.4902 -12.4902 12.4902 -32.75 0 -45.2402c-12.4893 -12.4902 -32.75 -12.4902 -45.2393 0l-58.6104 58.5996l-81.6104 -81.6094l-13.1494 -13.1504
c-3.86035 -3.84961 -6.07031 -7.99023 -7.43066 -11.8301h320.48z" />
    <glyph glyph-name="fill-drip" unicode="&#xf576;" horiz-adv-x="576" 
d="M512 128c0 0 64 -92.6504 64 -128s-28.6602 -64 -64 -64s-64 28.6504 -64 64s64 128 64 128zM502.63 230.94c12.4902 -12.5 12.4902 -32.75 -0.00976562 -45.25l-221.57 -221.57c-18.7402 -18.75 -43.2998 -28.1201 -67.8701 -28.1201
c-24.5596 0 -49.1299 9.37988 -67.8701 28.1201l-117.189 117.189c-37.4902 37.4902 -37.4902 98.2705 0 135.75l94.7598 94.7607l-86.1895 86.1797c-6.24023 6.24023 -6.24023 16.3701 0 22.6201l22.6191 22.6201c6.24023 6.25 16.3701 6.25 22.6201 0l86.1807 -86.1904
l81.5801 81.5801c6.23926 6.25 14.4297 9.37012 22.6191 9.37012c8.19043 0 16.3809 -3.12012 22.6309 -9.37012zM386.41 159.97l48.3398 48.3398l-162.44 162.44l-58.9492 -58.9502l58.5996 -58.5996c12.4902 -12.4902 12.4902 -32.75 0 -45.2402
s-32.75 -12.4902 -45.2402 0l-58.5996 58.5996l-81.6104 -81.6094l-13.1494 -13.1504c-3.86035 -3.84961 -6.07031 -7.99023 -7.43066 -11.8301h320.48z" />
    <glyph glyph-name="fingerprint" unicode="&#xf577;" 
d="M256.12 202.04c13.2598 0 24 -10.75 23.9902 -24c1.55957 -99.1104 -15.9502 -176.61 -29.4805 -224.521c-2.97949 -10.5996 -12.6104 -17.5195 -23.0898 -17.5195c-20.9697 0 -25.8496 20.7695 -23.1201 30.4902c19.5605 69.6494 28.8398 139.3 27.7002 211.55
c0 13.2598 10.75 24 24 24zM255.26 283.77c56.9707 -0.839844 104.03 -46.9199 104.91 -102.72c0.790039 -50.8994 -2.99023 -102.08 -11.2695 -152.109c-0.770508 -4.6709 -7.61035 -23.1006 -27.5801 -19.7705c-13.0703 2.16016 -21.9307 14.5205 -19.7607 27.5801
c7.80078 47.2197 11.3809 95.5 10.6104 143.55c-0.469727 30.1299 -26.3096 55 -57.6201 55.4697c-34.5303 0.150391 -54.8594 -26.3896 -54.4502 -52.3398c0.800781 -51.4395 -4.0293 -102.93 -14.3691 -153.02c-2.69043 -12.9805 -15.3105 -21.3105 -28.3604 -18.6406
c-12.9697 2.6709 -21.3301 15.3809 -18.6396 28.3604c9.61914 46.6396 14.1191 94.6104 13.3691 142.55c-0.849609 54.0205 41.9004 101.16 103.16 101.09zM144.57 303.55c10.2793 -8.37012 11.8398 -23.4795 3.48926 -33.7598
c-18.7998 -23.0898 -28.4697 -51.0898 -28 -80.9697c0.640625 -40.6699 -2.66992 -81.4902 -9.85938 -121.33c-0.820312 -4.5498 -7.78027 -22.8604 -27.8906 -19.3604c-13.0498 2.36035 -21.6992 14.8398 -19.3594 27.8896c6.63965 36.7803 9.7002 74.4707 9.10938 112.051
c-0.639648 40.7197 13.1309 80.5 38.75 112c8.39062 10.2793 23.46 11.8193 33.7607 3.47949zM254.04 365.88c101.09 -1.5 184.6 -83.0801 186.16 -181.83c0.0751953 -4.88281 0.147461 -8.55371 0.147461 -13.4551c0 -35.9766 -2.0498 -71.4785 -6.03809 -106.395
c-1.06934 -9.23047 -9.85938 -23.0605 -26.5791 -21.1104c-13.1602 1.5 -22.6104 13.4102 -21.1104 26.5801c4.2998 37.5205 6.16992 75.75 5.58008 113.63c-1.15039 73.0801 -63.4502 133.45 -138.88 134.58c-11.5303 0.0800781 -22.9502 -1.08008 -34 -3.68945
c-12.8906 -3 -25.8301 4.93945 -28.8906 17.8291c-3.04004 12.9102 4.94043 25.8301 17.8301 28.8906c14.9102 3.53027 30.3701 5.37988 45.7803 4.96973zM506.11 244.43c6.22949 -28.2295 6.00977 -50.1602 5.83008 -72.3398
c-0.110352 -13.1895 -10.8301 -23.7998 -24 -23.7998h-0.200195c-13.25 0.110352 -23.9102 10.9297 -23.7998 24.2002c0.209961 24.1895 0.00976562 40.1895 -4.7002 61.5996c-2.86035 12.9502 5.31934 25.75 18.2598 28.6104
c13.0996 2.92969 25.75 -5.35059 28.6104 -18.2705zM465.99 335.15c7.62012 -10.8408 5 -25.8105 -5.83984 -33.4307c-10.8604 -7.58984 -25.8105 -5 -33.4199 5.86035c-39.8906 56.8301 -105.171 91.3604 -174.62 92.3896
c-56.3408 0.810547 -108.92 -20.0596 -147.681 -58.8594c-37.1201 -37.1406 -57.1094 -86.5 -56.2793 -139l-0.160156 -23.6406c-0.379883 -13 -11.0498 -23.2998 -23.9707 -23.2998c-0.239258 0 -0.489258 0 -0.719727 0.0205078
c-13.25 0.379883 -23.6699 11.4395 -23.2803 24.6895l0.120117 21.4697c-1.04004 65.6104 23.9502 127.28 70.3203 173.71c48.0098 48.0303 112.56 73.7607 182.35 72.9209c84.79 -1.27051 164.48 -43.4404 213.181 -112.83z" />
    <glyph glyph-name="glass-martini-alt" unicode="&#xf57b;" 
d="M502.05 390.4l-214.05 -214.04v-192.36h56c22.0898 0 40 -17.9102 40 -40c0 -4.41992 -3.58008 -8 -8 -8h-240c-4.41992 0 -8 3.58008 -8 8c0 22.0898 17.9102 40 40 40h56v192.36l-214.05 214.04c-21.25 21.2598 -6.2002 57.5996 23.8496 57.5996h444.4
c30.0498 0 45.0996 -36.3398 23.8496 -57.5996zM443.77 400h-375.529l48 -48h279.529z" />
    <glyph glyph-name="grin-squint-tears" unicode="&#xf586;" 
d="M409.6 336.1c-5.59961 -0.799805 -10.2998 3.90039 -9.5 9.40039c3.30078 22.5996 12 73.5 26.8008 88.2998c19.0996 19.2002 50.6992 18.9004 70.2998 -0.700195c19.5996 -19.5996 19.8994 -51 0.700195 -70.1992
c-14.8008 -14.8008 -65.7002 -23.6006 -88.3008 -26.8008zM102.4 47.9004c5.59961 0.799805 10.2998 -3.90039 9.5 -9.40039c-3.30078 -22.5996 -12 -73.5 -26.8008 -88.2998c-19.1992 -19.2002 -50.5996 -18.9004 -70.1992 0.700195
c-19.6006 19.5996 -19.9004 51.0996 -0.800781 70.1992c14.8008 14.8008 65.7002 23.6006 88.3008 26.8008zM414.1 304.4c24 3.5 42.1006 7.39941 56.5 11.5c54.8008 -94.9004 42 -218.2 -39.1992 -299.301c-81.2002 -81.0996 -204.5 -94 -299.301 -39.1992
c4.10059 14.3994 8.10059 32.5 11.5 56.5c2.90039 20.5 -12.5 49.5996 -45.6992 45.6992c-24.1006 -3.5 -42.1006 -7.39941 -56.5 -11.5c-54.8008 94.9004 -41.9004 218.2 39.1992 299.301c81.2002 81.0996 204.5 94 299.301 39.1992
c-4.10059 -14.3994 -8.10059 -32.5 -11.5 -56.5c-2.90039 -20.5996 12.6992 -49.5996 45.6992 -45.6992zM255.7 342l-22.5 -90.5996c-2.2002 -8.60059 5.59961 -16.7002 14.5 -14.5l90.5 22.5996c13.0996 3.2998 11.5996 22.4004 -1.7998 23.5996l-52.3008 4.80078
l-4.7998 52.2998c-1.2002 13.2998 -20.2998 15 -23.5996 1.7998zM164.8 111.7c1.2998 -13.4004 20.4004 -14.9004 23.5 -1.7002l22.6006 90.5c2.19922 8.7002 -5.7002 16.7002 -14.5 14.5l-90.5 -22.5996c-13.1006 -3.30078 -11.6006 -22.4004 1.7998 -23.6006
l52.2998 -4.7998zM380.5 67.5c42.7998 42.9004 68 122.3 35.7002 167.6c-7.10059 9.90039 -21.9004 8.5 -27.2998 -2c-14.6006 -28.1992 -42.4004 -63.8994 -76.3008 -97.7998c-33.8994 -33.8994 -69.5 -61.7002 -97.7998 -76.2998
c-10.7002 -5.40039 -11.7998 -20.2998 -2 -27.2002c14.4004 -10.2002 32.1006 -14.7002 51 -14.7002c41 0 87.4004 21.1006 116.7 50.4004z" />
    <glyph glyph-name="grin-tears" unicode="&#xf588;" horiz-adv-x="640" 
d="M102.4 191.9c5.59961 0.799805 10.2998 -3.90039 9.5 -9.40039c-3.30078 -22.5996 -12 -73.5 -26.8008 -88.2998c-19.1992 -19.2002 -50.5996 -18.9004 -70.1992 0.700195c-19.6006 19.5996 -19.9004 51.0996 -0.800781 70.1992
c14.8008 14.8008 65.7002 23.6006 88.3008 26.8008zM625.8 165.1c19.2002 -19.0996 18.7998 -50.6992 -0.799805 -70.2998c-19.5996 -19.5996 -51 -19.8994 -70.2002 -0.700195c-14.7998 14.8008 -23.5996 65.7002 -26.7998 88.3008c-0.799805 5.59961 4 10.2998 9.5 9.5
c22.5996 -3.30078 73.5 -12 88.2998 -26.8008zM496.4 177.9c11.7998 -82.3008 29.8994 -100.4 35.7998 -106.301c0.899414 -1 2 -1.59961 3 -2.5c-42.7002 -74.6992 -123 -125.1 -215.2 -125.1s-172.5 50.4004 -215.2 125c1 0.900391 2.10059 1.59961 3 2.5
c5.90039 6 24 24.0996 35.7998 106.4c2.90039 20.3994 -12.5 49.5996 -45.6992 45.6992c-8.90039 -1.2998 -16.8008 -2.69922 -24.3008 -4.09961c13.7002 124 118.7 220.5 246.4 220.5s232.7 -96.5 246.4 -220.5c-7.5 1.40039 -15.4004 2.7998 -24.3008 4.09961
c-26.5996 3.80078 -49.5 -19.0996 -45.6992 -45.6992zM400 296c-23.7998 0 -52.7002 -29.2998 -55.7998 -71.4004c-0.700195 -8.5 10.7002 -11.8994 14.8994 -4.5l9.5 17c7.7002 13.7002 19.2002 21.6006 31.5 21.6006c12.3008 0 23.8008 -7.90039 31.5 -21.6006l9.5 -17
c4.10059 -7.5 15.6006 -4.09961 14.9004 4.5c-3.2998 42.1006 -32.2002 71.4004 -56 71.4004zM240 296c-23.7998 0 -52.7002 -29.2998 -55.7998 -71.4004c-0.700195 -8.5 10.7002 -11.8994 14.8994 -4.5l9.5 17c7.7002 13.7002 19.2002 21.6006 31.5 21.6006
c12.3008 0 23.8008 -7.90039 31.5 -21.6006l9.5 -17c4.10059 -7.5 15.6006 -4.09961 14.9004 4.5c-3.2998 42.1006 -32.2002 71.4004 -56 71.4004zM320 16c60.5996 0 134.5 38.2998 143.8 93.2998c1.90039 11.7998 -9.2998 21.6006 -20.7002 17.9004
c-30.1992 -9.7002 -75.0996 -15.2002 -123.1 -15.2002s-92.9004 5.5 -123.1 15.2002c-11.5 3.7002 -22.7002 -6.2002 -20.7002 -17.9004c9.2998 -55 83.2002 -93.2998 143.8 -93.2998z" />
    <glyph glyph-name="grip-horizontal" unicode="&#xf58d;" horiz-adv-x="448" 
d="M96 160c17.6699 0 32 -14.3301 32 -32v-64c0 -17.6699 -14.3301 -32 -32 -32h-64c-17.6699 0 -32 14.3301 -32 32v64c0 17.6699 14.3301 32 32 32h64zM256 160c17.6699 0 32 -14.3301 32 -32v-64c0 -17.6699 -14.3301 -32 -32 -32h-64c-17.6699 0 -32 14.3301 -32 32v64
c0 17.6699 14.3301 32 32 32h64zM416 160c17.6699 0 32 -14.3301 32 -32v-64c0 -17.6699 -14.3301 -32 -32 -32h-64c-17.6699 0 -32 14.3301 -32 32v64c0 17.6699 14.3301 32 32 32h64zM96 352c17.6699 0 32 -14.3301 32 -32v-64c0 -17.6699 -14.3301 -32 -32 -32h-64
c-17.6699 0 -32 14.3301 -32 32v64c0 17.6699 14.3301 32 32 32h64zM256 352c17.6699 0 32 -14.3301 32 -32v-64c0 -17.6699 -14.3301 -32 -32 -32h-64c-17.6699 0 -32 14.3301 -32 32v64c0 17.6699 14.3301 32 32 32h64zM416 352c17.6699 0 32 -14.3301 32 -32v-64
c0 -17.6699 -14.3301 -32 -32 -32h-64c-17.6699 0 -32 14.3301 -32 32v64c0 17.6699 14.3301 32 32 32h64z" />
    <glyph glyph-name="grip-vertical" unicode="&#xf58e;" horiz-adv-x="320" 
d="M96 416c17.6699 0 32 -14.3301 32 -32v-64c0 -17.6699 -14.3301 -32 -32 -32h-64c-17.6699 0 -32 14.3301 -32 32v64c0 17.6699 14.3301 32 32 32h64zM96 256c17.6699 0 32 -14.3301 32 -32v-64c0 -17.6699 -14.3301 -32 -32 -32h-64c-17.6699 0 -32 14.3301 -32 32v64
c0 17.6699 14.3301 32 32 32h64zM96 96c17.6699 0 32 -14.3301 32 -32v-64c0 -17.6699 -14.3301 -32 -32 -32h-64c-17.6699 0 -32 14.3301 -32 32v64c0 17.6699 14.3301 32 32 32h64zM288 416c17.6699 0 32 -14.3301 32 -32v-64c0 -17.6699 -14.3301 -32 -32 -32h-64
c-17.6699 0 -32 14.3301 -32 32v64c0 17.6699 14.3301 32 32 32h64zM288 256c17.6699 0 32 -14.3301 32 -32v-64c0 -17.6699 -14.3301 -32 -32 -32h-64c-17.6699 0 -32 14.3301 -32 32v64c0 17.6699 14.3301 32 32 32h64zM288 96c17.6699 0 32 -14.3301 32 -32v-64
c0 -17.6699 -14.3301 -32 -32 -32h-64c-17.6699 0 -32 14.3301 -32 32v64c0 17.6699 14.3301 32 32 32h64z" />
    <glyph glyph-name="headphones-alt" unicode="&#xf58f;" 
d="M160 160c17.6699 0 32 -14.3496 32 -32.0596v-127.881c0 -17.6992 -14.3301 -32.0596 -32 -32.0596h-16c-35.3496 0 -64 28.71 -64 64.1201v63.7598c0 35.4199 28.6504 64.1201 64 64.1201h16zM368 160c35.3496 0 64 -28.71 64 -64.1201v-63.7598
c0 -35.4102 -28.6504 -64.1201 -64 -64.1201h-16c-17.6699 0 -32 14.3604 -32 32.0596v127.881c0 17.71 14.3301 32.0596 32 32.0596h16zM256 416c143.09 0 251.43 -119.13 256 -256v-112c0 -8.83984 -7.16016 -16 -16 -16h-16c-8.83984 0 -16 7.16016 -16 16v112
c0 114.67 -93.3301 207.8 -208 207.82c-114.67 -0.0205078 -208 -93.1504 -208 -207.82v-112c0 -8.83984 -7.16016 -16 -16 -16h-16c-8.83984 0 -16 7.16016 -16 16v112c4.57031 136.87 112.91 256 256 256z" />
    <glyph glyph-name="headset" unicode="&#xf590;" 
d="M192 240v-112c0 -17.6699 -14.3301 -32 -32 -32h-16c-35.3496 0 -64 28.6504 -64 64v48c0 35.3496 28.6504 64 64 64h16c17.6699 0 32 -14.3301 32 -32zM368 96h-16c-17.6699 0 -32 14.3301 -32 32v112c0 17.6699 14.3301 32 32 32h16c35.3496 0 64 -28.6504 64 -64v-48
c0 -35.3496 -28.6504 -64 -64 -64zM256 448c142.82 0 251.42 -118.83 256 -256v-165.72c0 -49.8604 -40.4199 -90.2803 -90.2803 -90.2803h-181.72c-26.5098 0 -48 21.4902 -48 48s21.4902 48 48 48h32c26.5098 0 48 -21.4902 48 -48h101.72
c23.3506 0 42.2803 18.9297 42.2803 42.2803c0 0 -0.0400391 163.29 -0.120117 165.72h0.120117c0 114.69 -93.3096 208 -208 208s-208 -93.3096 -208 -208v-16c0 -8.83984 -7.16016 -16 -16 -16h-16c-8.83984 0 -16 7.16016 -16 16v16c4.58008 137.17 113.18 256 256 256z
" />
    <glyph glyph-name="hot-tub" unicode="&#xf593;" 
d="M414.21 270.35c-3.15039 25.3906 -14.6104 47.9707 -31.9697 62.1406c-27.7305 22.6299 -45.79 58.0498 -50.1299 97.1602c-1.09082 9.7793 6.48926 18.3496 16 18.3496h16.1201c7.98926 0 14.7295 -6.13965 15.7393 -14.3398
c3.16016 -25.4004 14.6104 -47.9805 31.9805 -62.1504c27.7295 -22.6299 45.79 -58.0498 50.1299 -97.1602c1.08008 -9.7793 -6.49023 -18.3496 -16 -18.3496h-16.1201c-8 0 -14.7295 6.13965 -15.75 14.3496zM306.21 270.35
c-3.15039 25.3906 -14.6104 47.9707 -31.9697 62.1406c-27.7305 22.6299 -45.79 58.0498 -50.1299 97.1602c-1.09082 9.7793 6.48926 18.3496 16 18.3496h16.1201c7.98926 0 14.7295 -6.13965 15.7393 -14.3398c3.16016 -25.4004 14.6104 -47.9805 31.9805 -62.1504
c27.7295 -22.6299 45.79 -58.0498 50.1299 -97.1602c1.08008 -9.7793 -6.49023 -18.3496 -16 -18.3496h-16.1201c-8 0 -14.7295 6.13965 -15.75 14.3496zM480 192c17.6699 0 32 -14.3301 32 -32v-160c0 -35.3496 -28.6504 -64 -64 -64h-384c-35.3496 0 -64 28.6504 -64 64
v224c0 35.3496 28.6504 64 64 64h42.6699c14.3779 0 27.7109 -4.78223 38.4004 -12.7998l110.93 -83.2002h224zM128 8v112c0 4.41992 -3.58008 8 -8 8h-16c-4.41992 0 -8 -3.58008 -8 -8v-112c0 -4.41992 3.58008 -8 8 -8h16c4.41992 0 8 3.58008 8 8zM224 8v112
c0 4.41992 -3.58008 8 -8 8h-16c-4.41992 0 -8 -3.58008 -8 -8v-112c0 -4.41992 3.58008 -8 8 -8h16c4.41992 0 8 3.58008 8 8zM320 8v112c0 4.41992 -3.58008 8 -8 8h-16c-4.41992 0 -8 -3.58008 -8 -8v-112c0 -4.41992 3.58008 -8 8 -8h16c4.41992 0 8 3.58008 8 8zM416 8
v112c0 4.41992 -3.58008 8 -8 8h-16c-4.41992 0 -8 -3.58008 -8 -8v-112c0 -4.41992 3.58008 -8 8 -8h16c4.41992 0 8 3.58008 8 8zM64 320c-35.3496 0 -64 28.6504 -64 64s28.6504 64 64 64s64 -28.6504 64 -64s-28.6504 -64 -64 -64z" />
    <glyph glyph-name="hotel" unicode="&#xf594;" horiz-adv-x="576" 
d="M560 384h-16v-384h16c8.83984 0 16 -7.16016 16 -16v-32c0 -8.83984 -7.16016 -16 -16 -16h-240v80c0 8.7998 -7.2002 16 -16 16h-32c-8.7998 0 -16 -7.2002 -16 -16v-80h-240c-8.83984 0 -16 7.16016 -16 16v32c0 8.83984 7.16016 16 16 16h15.9805v384h-15.9805
c-8.83984 0 -16 7.16016 -16 16v32c0 8.83984 7.16016 16 16 16h544c8.83984 0 16 -7.16016 16 -16v-32c0 -8.83984 -7.16016 -16 -16 -16zM256 339.2v-38.4004c0 -6.39941 6.40039 -12.7998 12.7998 -12.7998h38.4004c6.39941 0 12.7998 6.40039 12.7998 12.7998v38.4004
c0 6.39941 -6.40039 12.7998 -12.7998 12.7998h-38.4004c-6.39941 0 -12.7998 -6.40039 -12.7998 -12.7998zM256 243.2v-38.4004c0 -6.39941 6.40039 -12.7998 12.7998 -12.7998h38.4004c6.39941 0 12.7998 6.40039 12.7998 12.7998v38.4004
c0 6.39941 -6.40039 12.7998 -12.7998 12.7998h-38.4004c-6.39941 0 -12.7998 -6.40039 -12.7998 -12.7998zM128 339.2v-38.4004c0 -6.39941 6.40039 -12.7998 12.7998 -12.7998h38.4004c6.39941 0 12.7998 6.40039 12.7998 12.7998v38.4004
c0 6.39941 -6.40039 12.7998 -12.7998 12.7998h-38.4004c-6.39941 0 -12.7998 -6.40039 -12.7998 -12.7998zM179.2 192c6.39941 0 12.7998 6.40039 12.7998 12.7998v38.4004c0 6.39941 -6.40039 12.7998 -12.7998 12.7998h-38.4004
c-6.39941 0 -12.7998 -6.40039 -12.7998 -12.7998v-38.4004c0 -6.39941 6.40039 -12.7998 12.7998 -12.7998h38.4004zM192 64h192c0 53.0195 -42.9805 96 -96 96s-96 -42.9805 -96 -96zM448 204.8v38.4004c0 6.39941 -6.40039 12.7998 -12.7998 12.7998h-38.4004
c-6.39941 0 -12.7998 -6.40039 -12.7998 -12.7998v-38.4004c0 -6.39941 6.40039 -12.7998 12.7998 -12.7998h38.4004c6.39941 0 12.7998 6.40039 12.7998 12.7998zM448 300.8v38.4004c0 6.39941 -6.40039 12.7998 -12.7998 12.7998h-38.4004
c-6.39941 0 -12.7998 -6.40039 -12.7998 -12.7998v-38.4004c0 -6.39941 6.40039 -12.7998 12.7998 -12.7998h38.4004c6.39941 0 12.7998 6.40039 12.7998 12.7998z" />
    <glyph glyph-name="joint" unicode="&#xf595;" horiz-adv-x="640" 
d="M444.34 266.9c-35.7803 25.0693 -60.3398 63.0098 -60.3398 106.699v66.4004c0 4.41992 3.58008 8 8 8h48c4.41992 0 8 -3.58008 8 -8v-62.3096c0 -29.0303 15.8496 -54.71 39.6602 -71.3203c35.3301 -24.6504 56.3398 -64.8203 56.3398 -108.061v-30.3096
c0 -4.41992 -3.58008 -8 -8 -8h-48c-4.41992 0 -8 3.58008 -8 8v30.3096c0 27.4307 -13.2803 52.9102 -35.6602 68.5908zM194.97 89.0195c22.3701 3.60059 45.0801 -4.30957 59.8203 -21.5098l112.72 -131.51h-88.5693c-98.6406 0 -195.29 27.7197 -278.94 80
c59.6904 37.3096 126.03 61.9297 194.97 73.0195zM553.28 360.91c54.3096 -36.4102 86.7197 -97.1602 86.7197 -162.601v-30.3096c0 -4.41992 -3.58008 -8 -8 -8h-48c-4.41992 0 -8 3.58008 -8 8v30.3096c0 50.1504 -25.21 96.6504 -67.3604 123.99
c-18.4697 11.9805 -28.6396 33.3701 -28.6396 55.3906v62.3096c0 4.41992 3.58008 8 8 8h48c4.41992 0 8 -3.58008 8 -8v-62.3096c0 -6.82031 3.61035 -12.9805 9.28027 -16.7803zM360.89 95.9502c0.0371094 0 0.0556641 0.0351562 0.0927734 0.0351562
c19.4336 0 36.8535 -8.68652 48.5879 -22.3857l117.949 -137.6h-88.4492c-19.4385 0 -36.8506 8.65137 -48.5898 22.3496l-117.801 137.431c1.40039 0.0195312 53.8105 0.109375 88.21 0.169922zM616 96c13.25 0 24 -10.7402 24 -24v-112c0 -13.25 -10.75 -24 -24 -24
h-17.4199c-19.4375 0 -36.8506 8.65137 -48.5898 22.3496l-117.99 137.65h184z" />
    <glyph glyph-name="luggage-cart" unicode="&#xf59d;" horiz-adv-x="640" 
d="M224 128c-17.6699 0 -32 14.3301 -32 32v160c0 17.6699 14.3301 32 32 32h32v-224h-32zM576 160c0 -17.6699 -14.3301 -32 -32 -32h-32v224h32c17.6699 0 32 -14.3301 32 -32v-160zM624 64c8.83984 0 16 -7.16016 16 -16v-32c0 -8.83984 -7.16016 -16 -16 -16h-82.9404
c1.79004 -5.03027 2.94043 -10.3604 2.94043 -16c0 -26.5098 -21.4902 -48 -48 -48s-48 21.4902 -48 48c0 5.63965 1.15039 10.9697 2.94043 16h-197.881c1.79004 -5.03027 2.94043 -10.3604 2.94043 -16c0 -26.5098 -21.4902 -48 -48 -48s-48 21.4902 -48 48
c0 5.63965 1.15039 10.9697 2.94043 16h-82.9404c-8.83984 0 -16 7.16016 -16 16v368h-48c-8.83984 0 -16 7.16016 -16 16v32c0 8.83984 7.16016 16 16 16h96c8.83984 0 16 -7.16016 16 -16v-368h496zM480 352v-224h-192v272c0 26.5098 21.4902 48 48 48h96
c26.5098 0 48 -21.4902 48 -48v-48zM432 352v48h-96v-48h96z" />
    <glyph glyph-name="map-marked" unicode="&#xf59f;" horiz-adv-x="576" 
d="M288 448c69.5898 0 126 -56.4102 126 -126c0 -56.2598 -82.3496 -158.8 -113.9 -196.02c-6.37988 -7.54004 -17.8096 -7.54004 -24.1992 0c-31.5508 37.2197 -113.9 139.76 -113.9 196.02c0 69.5898 56.4102 126 126 126zM20.1201 232.05l118.63 47.4502
c5.17969 -14.8799 12.4102 -30.4404 21.25 -46.4199v-233.08l-138.06 -62.8398c-10.5107 -4.2002 -21.9404 3.54004 -21.9404 14.8594v250.32c0.00292969 13.4697 8.32617 24.9932 20.1201 29.71zM288 88.3301c14.0703 0 27.3799 6.17969 36.5098 16.9502
c19.6699 23.2002 40.5703 49.6299 59.4902 76.7197v-245.99l-192 64v182c18.9199 -27.0996 39.8301 -53.5195 59.4902 -76.7197c9.12988 -10.7803 22.4395 -16.96 36.5098 -16.96zM554.06 286.84c10.5107 4.2002 21.9404 -3.54004 21.9404 -14.8594v-250.32
c0 -13.4707 -8.32422 -24.9951 -20.1201 -29.71l-139.88 -55.9502v288z" />
    <glyph glyph-name="map-marked-alt" unicode="&#xf5a0;" horiz-adv-x="576" 
d="M288 448c69.5898 0 126 -56.4102 126 -126c0 -56.2598 -82.3496 -158.8 -113.9 -196.02c-6.37988 -7.54004 -17.8096 -7.54004 -24.1992 0c-31.5508 37.2197 -113.9 139.76 -113.9 196.02c0 69.5898 56.4102 126 126 126zM288 280c23.2002 0 42 18.7998 42 42
s-18.7998 42 -42 42s-42 -18.7998 -42 -42s18.7998 -42 42 -42zM20.1201 232.05l118.63 47.4502c5.17969 -14.8799 12.4102 -30.4404 21.25 -46.4199v-233.08l-138.06 -62.8398c-10.5107 -4.2002 -21.9404 3.54004 -21.9404 14.8594v250.32
c0.00292969 13.4697 8.32617 24.9932 20.1201 29.71zM288 88.3301c14.0703 0 27.3799 6.17969 36.5098 16.9502c19.6699 23.2002 40.5703 49.6299 59.4902 76.7197v-245.99l-192 64v182c18.9199 -27.0996 39.8301 -53.5195 59.4902 -76.7197
c9.12988 -10.7803 22.4395 -16.96 36.5098 -16.96zM554.06 286.84c10.5107 4.2002 21.9404 -3.54004 21.9404 -14.8594v-250.32c0 -13.4707 -8.32422 -24.9951 -20.1201 -29.71l-139.88 -55.9502v288z" />
    <glyph glyph-name="marker" unicode="&#xf5a1;" 
d="M93.9502 157.97l75.3994 75.4004l128.021 -128.021l-75.4004 -75.3994c-51.1611 -51.1592 -119.559 -85.4326 -195.34 -93.7998c-15.2803 -1.69043 -28.1895 11.2295 -26.4902 26.5098l0.0302734 0.229492c8.42188 75.6777 42.6777 143.978 93.7803 195.08z
M485.49 421.49c35.3496 -35.3604 35.3496 -92.6699 0 -128.021l-165.49 -165.489l-128.02 128.02l98.4795 98.4697l-19.5898 19.5898l-87.1504 -87.1494c-6.25 -6.25 -16.3799 -6.25 -22.6299 0l-22.6201 22.6201c-6.25 6.25 -6.25 16.3799 0 22.6299l104.12 104.12
c15.6104 15.6201 40.9404 15.6201 56.5605 0l36.5596 -36.5498l21.7598 21.7598c35.3506 35.3496 92.6699 35.3496 128.021 0z" />
    <glyph glyph-name="medal" unicode="&#xf5a2;" 
d="M223.75 317.25c-42.04 -6.55957 -79.8398 -25.6201 -109.56 -53.3896l-111.271 158.96c-7.41992 10.6094 0.160156 25.1797 13.1104 25.1797h111.149c11.6572 0 21.8467 -6.21387 27.4404 -15.54zM495.97 448c12.9502 0 20.5303 -14.5703 13.1104 -25.1797
l-111.271 -158.95c-29.7197 27.7598 -67.5195 46.8203 -109.56 53.3799l69.1299 115.21c5.78027 9.63965 16.2002 15.54 27.4404 15.54h111.149zM256 288c97.2002 0 176 -78.7998 176 -176s-78.7998 -176 -176 -176s-176 78.7998 -176 176s78.7998 176 176 176z
M348.52 130.74c6.82031 6.63965 3.05078 18.2295 -6.34961 19.5898l-52.4297 7.63965l-23.4307 47.5205c-2.10938 4.25 -6.21973 6.38965 -10.3291 6.38965c-4.09082 0 -8.1709 -2.11035 -10.2803 -6.38965l-23.4307 -47.5205l-52.4297 -7.63965
c-9.39941 -1.36035 -13.1699 -12.9502 -6.34961 -19.5898l37.9297 -36.96l-8.96973 -52.2207c-1.60059 -9.34961 8.25 -16.54 16.6494 -12.0898l46.9004 24.6504l46.9102 -24.6504c8.38965 -4.41992 18.25 2.73047 16.6494 12.0898l-8.96973 52.2207z" />
    <glyph glyph-name="monument" unicode="&#xf5a6;" horiz-adv-x="384" 
d="M368 0c8.83984 0 16 -7.16016 16 -16v-32c0 -8.83984 -7.16016 -16 -16 -16h-352c-8.83984 0 -16 7.16016 -16 16v32c0 8.83984 7.16016 16 16 16h352zM289.14 347.26l30.8604 -315.26h-256l30.8701 315.26c0.751953 7.54688 4.12988 14.3613 9.20996 19.4404
l76.5996 76.6094c6.25 6.25 16.3799 6.25 22.6299 0l76.6201 -76.6094c5.08008 -5.0791 8.45801 -11.8936 9.20996 -19.4404zM240 140.8v38.4004c0 6.39941 -6.40039 12.7998 -12.7998 12.7998h-70.4004c-6.39941 0 -12.7998 -6.40039 -12.7998 -12.7998v-38.4004
c0 -6.39941 6.40039 -12.7998 12.7998 -12.7998h70.4004c6.39941 0 12.7998 6.40039 12.7998 12.7998z" />
    <glyph glyph-name="mortar-pestle" unicode="&#xf5a7;" 
d="M501.54 387.09l-99.0801 -99.0898h-151.37l203.811 152.86c5.96094 4.46875 13.4297 7.11426 21.4473 7.11426c5.71973 0 11.1279 -1.34863 15.9219 -3.74414c21.7803 -10.8906 26.4902 -39.9209 9.27051 -57.1406zM496 256c8.83984 0 16 -7.16016 16 -16v-32
c0 -8.83984 -7.16016 -16 -16 -16h-16c0 -80.9805 -50.2002 -150.11 -121.13 -178.32c12.7695 -16.8701 21.7295 -36.7998 24.9502 -58.6895c1.45996 -9.91992 -6.04004 -18.9805 -16.0703 -18.9805h-223.5c-10.0303 0 -17.5303 9.06055 -16.0703 18.9805
c3.23047 21.8896 12.1904 41.8193 24.9502 58.6895c-70.9297 28.21 -121.13 97.3398 -121.13 178.32h-16c-8.83984 0 -16 7.16016 -16 16v32c0 8.83984 7.16016 16 16 16h480z" />
    <glyph glyph-name="paint-brush-alt" unicode="&#xf5a9;" 
d="M365.99 414.9c61.96 88.3994 198.16 -19.4199 124.93 -99.8906l-218.81 -221.52l-78 65zM167.87 138.71l87.0703 -72.5596c0.379883 -3.32031 1.05957 -6.57031 1.05957 -9.95996c0 -76.4209 -52.1396 -120.19 -128 -120.19c-90.0703 0 -128 72.3799 -128 154.73
c9.79004 -6.68066 44.1396 -34.3506 55.25 -34.3506c6.58984 0 12.2402 3.77051 14.5898 9.98047c20.7998 54.8193 57.5801 69.9395 98.0303 72.3496z" />
    <glyph glyph-name="paint-roller" unicode="&#xf5aa;" 
d="M416 320c0 -17.6699 -14.3301 -32 -32 -32h-352c-17.6699 0 -32 14.3301 -32 32v96c0 17.6699 14.3301 32 32 32h352c17.6699 0 32 -14.3301 32 -32v-96zM448 384c35.3496 0 64 -28.6504 64 -64v-64c0 -53.0195 -42.9805 -96 -96 -96h-160v-32
c17.6699 0 32 -14.3301 32 -32v-128c0 -17.6699 -14.3301 -32 -32 -32h-64c-17.6699 0 -32 14.3301 -32 32v128c0 17.6699 14.3301 32 32 32v32c0 35.3496 28.6504 64 64 64h160c17.6699 0 32 14.3301 32 32v128z" />
    <glyph glyph-name="passport" unicode="&#xf5ab;" horiz-adv-x="448" 
d="M129.62 272c5.28027 31.2197 25.5898 57.1699 53.2998 70.4102c-7.66992 -19.0605 -12.7197 -43.3799 -14.21 -70.4102h-39.0898zM129.62 240h39.0898c1.49023 -27.0303 6.53027 -51.3496 14.21 -70.4102c-27.71 13.2402 -48.0098 39.1904 -53.2998 70.4102zM224 161.31
c-7.69043 7.4502 -20.7695 34.4307 -23.4404 78.6904h46.8701c-2.66016 -44.2695 -15.7393 -71.2402 -23.4297 -78.6904zM200.57 272c2.66016 44.2598 15.7393 71.2402 23.4395 78.6904c7.69043 -7.4502 20.7705 -34.4307 23.4307 -78.6904h-46.8701zM265.08 169.59
c7.67969 19.0605 12.7197 43.3799 14.21 70.4102h39.0898c-5.28027 -31.2197 -25.5898 -57.1699 -53.2998 -70.4102zM416 448c17.6699 0 32 -14.3301 32 -32v-448c0 -17.6699 -14.3301 -32 -32 -32h-352c-35.3496 0 -64 28.6504 -64 64v384c0 35.3496 28.6504 64 64 64h352z
M336 32c8.7998 0 16 7.2002 16 16s-7.2002 16 -16 16h-224c-8.7998 0 -16 -7.2002 -16 -16s7.2002 -16 16 -16h224zM224 128c70.6904 0 128 57.3096 128 128s-57.3096 128 -128 128s-128 -57.3096 -128 -128s57.3096 -128 128 -128zM265.08 342.41
c27.71 -13.2402 48.0195 -39.1904 53.2998 -70.4102h-39.0898c-1.49023 27.0303 -6.53027 51.3496 -14.21 70.4102z" />
    <glyph glyph-name="pen-fancy" unicode="&#xf5ac;" 
d="M79.1797 165.06l84.0703 33.0703l98.8799 -98.8799l-33.0703 -84.0703c-3.1748 -9.5332 -10.7061 -17.0645 -20.2393 -20.2393l-176.82 -58.9404l-4.67969 4.67969l92.8896 92.8906c2.55957 -0.660156 5.03027 -1.57031 7.7998 -1.57031c17.6699 0 32 14.3301 32 32
s-14.3301 32 -32 32s-32 -14.3301 -32 -32c0 -2.76953 0.910156 -5.24023 1.57031 -7.7998l-92.8896 -92.8906l-4.69043 4.69043l58.9404 176.82c3.17773 9.53223 10.707 17.0615 20.2393 20.2393zM369.25 419.68c74.4805 84.2607 199.15 -39.1602 114.23 -114.229
l-199.49 -183.11l-97.8506 97.8506z" />
    <glyph glyph-name="pen-nib" unicode="&#xf5ad;" 
d="M136.6 309.21l151.4 42.79l128 -128l-42.79 -151.4c-5.76172 -20.3838 -21.3594 -36.6455 -41.3496 -43.3096l-279.86 -93.29l-14.6904 14.6904l150.11 150.109c6.25977 -2.99023 13.1797 -4.7998 20.5801 -4.7998c26.5098 0 48 21.4902 48 48s-21.4902 48 -48 48
s-48 -21.4902 -48 -48c0 -7.40039 1.80957 -14.3203 4.7998 -20.5801l-150.109 -150.11l-14.6904 14.6904l93.29 279.86c6.66406 19.9902 22.9258 35.5879 43.3096 41.3496zM497.94 373.83c18.75 -18.7598 18.75 -49.1602 0 -67.9102l-56.5508 -56.5498l-128.02 128.02
l56.5498 56.5508c18.75 18.75 49.1602 18.75 67.9102 0z" />
    <glyph glyph-name="pencil-ruler" unicode="&#xf5ae;" 
d="M109.46 203.96l-100.17 100.18c-12.3896 12.3906 -12.3799 32.4707 0 44.8604l89.71 89.71c12.3896 12.3896 32.4697 12.3896 44.8604 0l33.6396 -33.6504l-61.6797 -61.6797c-3.10059 -3.08984 -3.10059 -8.11035 0 -11.21l11.21 -11.21
c1.43359 -1.43652 3.41797 -2.32617 5.60547 -2.32617c2.18848 0 4.16992 0.889648 5.60449 2.32617l61.6797 61.6797l44.1201 -44.1201zM497.93 320.76l-46.0195 -46.0293l-113.2 113.199l46.0205 46.0107c18.7695 18.7598 49.1895 18.7598 67.9492 0l45.25 -45.25
c18.75 -18.7607 18.7607 -49.1709 0 -67.9307zM316.08 365.29l113.2 -113.19l-296.92 -296.93l-107.45 -18.8398c-14.5 -2.5498 -27.1201 10.0703 -24.5898 24.5596l18.7598 107.44zM502.71 79.8604c12.3896 -12.3906 12.3896 -32.4707 0 -44.8604l-89.71 -89.7002
c-12.3896 -12.3896 -32.4697 -12.3896 -44.8604 0l-100.21 100.2l134.58 134.56l44.1406 -44.1396l-61.6807 -61.6797c-3.08984 -3.08984 -3.08984 -8.11035 0 -11.21l11.21 -11.21c3.08984 -3.10059 8.11035 -3.10059 11.21 0l61.6807 61.6797z" />
    <glyph glyph-name="plane-arrival" unicode="&#xf5af;" horiz-adv-x="640" 
d="M624 0c8.83984 0 16 -7.16016 16 -16v-32c0 -8.83984 -7.16016 -16 -16 -16h-608c-8.83984 0 -16 7.16016 -16 16v32c0 8.83984 7.16016 16 16 16h608zM44.8096 242.34c-6.5498 5.91016 -12.3896 14.3398 -12.5791 23.25l-0.230469 101.78
c0.19043 10.8799 10.3799 18.7002 20.7197 15.8799l39.7305 -10.8301c5.00977 -1.36035 9.08984 -5.04004 11.0195 -9.92969l27.5898 -67.8799l102.2 -27.8408l-47.9199 164.211c-0.189453 11.1191 10.1504 19.3193 20.71 16.4395l65.0898 -17.7295
c5.70996 -1.56055 10.1504 -6.10059 11.6602 -11.9102l100.36 -191.851l97.5098 -26.5596c26.4805 -7.20996 51.5498 -20.1797 70.8301 -40c21.6396 -22.25 27.2002 -40.46 23.3701 -54.96c-3.81055 -14.5 -17.5801 -27.4404 -47.25 -35.71
c-26.4404 -7.36035 -54.5205 -5.85059 -81 1.35938l-287.601 78.3506c-9.58496 2.61621 -18.2998 7.45605 -25.4697 13.9297z" />
    <glyph glyph-name="prescription" unicode="&#xf5b1;" horiz-adv-x="384" 
d="M301.26 96l78.0605 -78.0498c6.25 -6.25 6.25 -16.3799 0 -22.6299l-22.6299 -22.6299c-6.25 -6.25 -16.3809 -6.25 -22.6309 0l-78.0596 78.0596l-78.0498 -78.0703c-6.25 -6.25 -16.3799 -6.25 -22.6299 0l-22.6299 22.6299c-6.25 6.25 -6.25 16.3809 0 22.6309
l78.0596 78.0596l-128 128h-18.75v-80c0 -8.83984 -7.16016 -16 -16 -16h-32c-8.83984 0 -16 7.16016 -16 16v256c0 8.83984 7.16016 16 16 16h144c53.0195 0 96 -42.9805 96 -96c0 -48.8896 -36.6904 -88.7998 -83.96 -94.7803l83.96 -83.96l78.0596 78.0605
c6.25 6.25 16.3809 6.25 22.6309 0l22.6299 -22.6299c6.25 -6.25 6.25 -16.3809 0 -22.6309zM64 352v-64h96c17.6396 0 32 14.3604 32 32s-14.3604 32 -32 32h-96z" />
    <glyph glyph-name="shuttle-van" unicode="&#xf5b6;" horiz-adv-x="640" 
d="M628.88 237.35c7.17969 -8.62988 11.1201 -19.5 11.1201 -30.7295v-110.62c0 -17.6699 -14.3301 -32 -32 -32h-32c0 -53.0195 -42.9805 -96 -96 -96s-96 42.9805 -96 96h-128c0 -53.0195 -42.9805 -96 -96 -96s-96 42.9805 -96 96h-32c-17.6699 0 -32 14.3301 -32 32v288
c0 17.6699 14.3301 32 32 32h425.52c14.8184 -0.00292969 28.0625 -6.70312 36.8701 -17.2695zM64 256h96v96h-96v-96zM160 16c26.5098 0 48 21.4902 48 48s-21.4902 48 -48 48s-48 -21.4902 -48 -48s21.4902 -48 48 -48zM320 256v96h-96v-96h96zM480 16
c26.5098 0 48 21.4902 48 48s-21.4902 48 -48 48s-48 -21.4902 -48 -48s21.4902 -48 48 -48zM384 256h146.02l-80 96h-66.0195v-96z" />
    <glyph glyph-name="smile-plus" unicode="&#xf5b9;" horiz-adv-x="640" 
d="M208 352c114.9 0 208 -93.0996 208 -208s-93.0996 -208 -208 -208s-208 93.0996 -208 208s93.0996 208 208 208zM272 218.8c-14.7998 0 -26.7998 -12 -26.7998 -26.7998s12 -26.7998 26.7998 -26.7998s26.7998 12 26.7998 26.7998s-12 26.7998 -26.7998 26.7998z
M144 218.8c-14.7998 0 -26.7998 -12 -26.7998 -26.7998s12 -26.7998 26.7998 -26.7998s26.7998 12 26.7998 26.7998s-12 26.7998 -26.7998 26.7998zM308.2 77.9004c5.7002 6.69922 4.89941 16.7998 -1.90039 22.5996c-6.7002 5.7002 -16.7998 5 -22.5996 -1.7998
c-18.7998 -22.1006 -46.4004 -34.7002 -75.7998 -34.7002c-29.3008 0 -57 12.5996 -75.8008 34.5996c-5.69922 6.80078 -15.6992 7.5 -22.5 1.80078c-6.7998 -5.7002 -7.59961 -15.8008 -1.7998 -22.5c24.9004 -29.2002 61.4004 -45.9004 100.2 -45.9004
s75.2998 16.7002 100.2 45.9004zM624 368c8.7998 0 16 -7.2002 16 -16v-32c0 -8.7998 -7.2002 -16 -16 -16h-64v-64c0 -8.7998 -7.2002 -16 -16 -16h-32c-8.7998 0 -16 7.2002 -16 16v64h-64c-8.7998 0 -16 7.2002 -16 16v32c0 8.7998 7.2002 16 16 16h64v64
c0 8.7998 7.2002 16 16 16h32c8.7998 0 16 -7.2002 16 -16v-64h64z" />
    <glyph glyph-name="solar-panel" unicode="&#xf5ba;" horiz-adv-x="640" 
d="M431.98 -0.00976562c8.84961 0.00976562 16.0293 -7.16992 16.0195 -16.0205l-0.0400391 -31.7295c-0.00976562 -8.82031 -7.16016 -15.9707 -15.9795 -15.9805l-223.961 -0.259766c-8.84961 -0.00976562 -16.0293 7.16992 -16.0195 16.0195l0.0498047 31.7305
c0.00976562 8.83008 7.16016 15.9805 15.9805 15.9902l47.9795 0.0498047v32.21h128v-32.0596zM585.2 421.26c58.1094 -342.42 54.7803 -321.39 54.7598 -325.47c-0.0800781 -17.2305 -14.3604 -31.79 -32.5898 -31.79h-574.74c-18.3096 0 -32.6299 14.6797 -32.5996 32
c0.00976562 3.91992 -3.35059 -17.1602 54.7598 325.26c2.62012 15.4307 16.21 26.7402 32.1396 26.7402h466.13c15.9307 0 29.5205 -11.3096 32.1406 -26.7402zM259.83 384l-9.77051 -96h139.87l-9.76953 96h-120.33zM184.66 128l11.4102 112h-105.971l-19.0098 -112
h113.57zM200.95 288l9.76953 96h-96.1895l-16.29 -96h102.71zM233.77 128h172.45l-11.3994 112h-149.65zM429.27 384l9.77051 -96h102.71l-16.29 96h-96.1904zM455.33 128h113.58l-19.0098 112h-105.971z" />
    <glyph glyph-name="spa" unicode="&#xf5bb;" horiz-adv-x="576" 
d="M568.25 256c4.41016 0.0195312 7.79004 -3.40039 7.75 -7.82031c-0.230469 -27.9199 -7.12988 -126.13 -88.7695 -199.3c-84.04 -81.8301 -167.23 -80.8799 -199.23 -80.8799s-115.21 -0.94043 -199.23 80.8799c-81.6299 73.1602 -88.5391 171.38 -88.7695 199.3
c-0.0400391 4.41992 3.33984 7.83984 7.75 7.82031c29.04 -0.129883 135.01 -6.16016 213.84 -83c33.1201 -29.6299 53.3604 -63.2998 66.4102 -94.8604c13.0498 31.5605 33.29 65.2305 66.4102 94.8604c78.8301 76.8398 184.8 82.8701 213.84 83zM287.98 145.4
c-12.9727 19.0527 -27.9248 36.124 -45.04 51.46c-18.7207 18.25 -38.8506 32.6895 -59.2207 44.3896c16.4707 70.4404 51.75 132.93 96.7402 172.07c4.12012 3.58008 11.0303 3.58008 15.1396 0c45.0107 -39.1699 80.29 -101.721 96.7305 -172.221
c-20.6797 -11.8799 -41.1699 -26.5693 -60.2598 -45.1797c-16.4902 -14.7402 -31.2705 -31.6699 -44.0898 -50.5195z" />
    <glyph glyph-name="splotch" unicode="&#xf5bc;" 
d="M472.29 252.11c48.54 -16.6201 53.8301 -73.8301 8.9502 -96.79l-62 -31.7402c-17.8301 -9.12988 -29.2803 -25.2002 -30.6299 -42.9902l-4.7002 -61.8594c-3.41016 -44.79 -65.1299 -66.7803 -104.45 -37.2207l-54.3203 40.8301
c-15.6201 11.7305 -36.96 16.1201 -57.0693 11.7305l-69.96 -15.2803c-50.6504 -11.0596 -94.0801 32.5596 -73.4902 73.8096l28.4297 56.9805c8.18066 16.3799 6.44043 35.1699 -4.63965 50.2402l-38.54 52.4199c-27.9004 37.9502 6.97949 86.8994 59.0303 82.8301
l71.8799 -5.62012c20.6602 -1.62012 40.9395 5.59961 54.2002 19.3096l46.1396 47.6699c33.4102 34.5107 98.3994 21.1504 109.979 -22.6201l15.9902 -60.4492c4.60059 -17.3799 18.8604 -31.7002 38.1406 -38.3008z" />
    <glyph glyph-name="spray-can" unicode="&#xf5bd;" 
d="M224 416v-96h-128v96c0 17.6699 14.3301 32 32 32h64c17.6699 0 32 -14.3301 32 -32zM480 320c17.6699 0 32 -14.3301 32 -32s-14.3301 -32 -32 -32s-32 14.3301 -32 32s14.3301 32 32 32zM224 288c53.0195 0 96 -42.9805 96 -96v-224c0 -17.6699 -14.3301 -32 -32 -32
h-256c-17.6699 0 -32 14.3301 -32 32v224c0 53.0195 42.9805 96 96 96h128zM160 32c44.1797 0 80 35.8203 80 80s-35.8203 80 -80 80s-80 -35.8203 -80 -80s35.8203 -80 80 -80zM480 352c-17.6699 0 -32 14.3301 -32 32s14.3301 32 32 32s32 -14.3301 32 -32
s-14.3301 -32 -32 -32zM384 320c17.6699 0 32 -14.3301 32 -32s-14.3301 -32 -32 -32s-32 14.3301 -32 32s14.3301 32 32 32zM288 416c17.6699 0 32 -14.3301 32 -32s-14.3301 -32 -32 -32s-32 14.3301 -32 32s14.3301 32 32 32zM384 416c17.6699 0 32 -14.3301 32 -32
s-14.3301 -32 -32 -32s-32 14.3301 -32 32s14.3301 32 32 32zM480 224c17.6699 0 32 -14.3301 32 -32s-14.3301 -32 -32 -32s-32 14.3301 -32 32s14.3301 32 32 32z" />
    <glyph glyph-name="swimmer" unicode="&#xf5c4;" horiz-adv-x="640" 
d="M189.61 137.42c-5.04004 4.65039 -10.3906 8.34961 -15.8604 11.5801l68.6299 98.04c7.36035 10.5 16.3398 19.5498 26.7197 26.9404l80.0205 57.1699c25.54 18.2598 57.8301 24.96 88.5596 18.3799l100.351 -21.5303c25.9297 -5.55957 42.4297 -31.0801 36.8799 -57
c-5.56055 -25.9102 -31.0898 -42.4102 -57 -36.8799l-100.351 21.5303c-4.33984 0.90918 -8.97949 -0.0302734 -12.6191 -2.61035l-18 -12.8604l112.84 -80.5996c-17.5107 -1.04004 -34.5303 -8.4502 -49.3906 -22.1602
c-3.5293 -3.25977 -15.2695 -9.41992 -34.3896 -9.41992s-30.8496 6.16016 -34.3896 9.41992c-16.0107 14.7705 -34.5 22.5801 -53.46 22.5801h-16.3008c-18.96 0 -37.4395 -7.80957 -53.46 -22.5801c-3.5293 -3.25977 -15.2695 -9.41992 -34.3896 -9.41992
s-30.8496 6.16016 -34.3896 9.41992zM624 96c8.83984 0 16 -7.16016 16 -16v-32c0 -8.83984 -7.16016 -16 -16 -16h-16c-38.6201 0 -72.7197 12.1797 -96 31.8398c-23.2803 -19.6494 -57.3799 -31.8398 -96 -31.8398s-72.7197 12.1797 -96 31.8398
c-23.2803 -19.6494 -57.3799 -31.8398 -96 -31.8398s-72.7197 12.1797 -96 31.8398c-23.2803 -19.6494 -57.3799 -31.8398 -96 -31.8398h-16c-8.83984 0 -16 7.16016 -16 16v32c0 8.83984 7.16016 16 16 16h16c26.04 0 45.7998 8.41992 56.0703 17.9004
c8.89941 8.20996 19.6602 14.0996 31.7695 14.0996h16.2998c12.1104 0 22.8701 -5.88965 31.7705 -14.0996c10.29 -9.48047 30.0498 -17.9004 56.0898 -17.9004s45.7998 8.41992 56.0703 17.9004c8.89941 8.20996 19.6602 14.0996 31.7695 14.0996h16.2998
c12.1104 0 22.8701 -5.88965 31.7705 -14.0996c10.29 -9.48047 30.0498 -17.9004 56.0898 -17.9004s45.7998 8.41992 56.0703 17.9004c8.89941 8.20996 19.6602 14.0996 31.7695 14.0996h16.2998c12.1104 0 22.8701 -5.88965 31.7705 -14.0996
c10.29 -9.48047 30.0498 -17.9004 56.0898 -17.9004h16zM112 192c-44.1797 0 -80 35.8203 -80 80s35.8203 80 80 80s80 -35.8203 80 -80s-35.8203 -80 -80 -80z" />
    <glyph glyph-name="swimming-pool" unicode="&#xf5c5;" horiz-adv-x="640" 
d="M624 32c8.83984 0 16 -7.16016 16 -16v-32c0 -8.83984 -7.16016 -16 -16 -16h-16c-38.6201 0 -72.7197 12.1797 -96 31.8398c-23.2803 -19.6494 -57.3799 -31.8398 -96 -31.8398s-72.7197 12.1797 -96 31.8398c-23.2803 -19.6494 -57.3799 -31.8398 -96 -31.8398
s-72.7197 12.1797 -96 31.8398c-23.2803 -19.6494 -57.3799 -31.8398 -96 -31.8398h-16c-8.83984 0 -16 7.16016 -16 16v32c0 8.83984 7.16016 16 16 16h16c26.04 0 45.7998 8.41992 56.0703 17.9004c8.89941 8.20996 19.6602 14.0996 31.7695 14.0996h16.2998
c12.1104 0 22.8701 -5.88965 31.7705 -14.0996c10.29 -9.48047 30.0498 -17.9004 56.0898 -17.9004s45.7998 8.41992 56.0703 17.9004c8.89941 8.20996 19.6602 14.0996 31.7695 14.0996h16.2998c12.1104 0 22.8701 -5.88965 31.7705 -14.0996
c10.29 -9.48047 30.0498 -17.9004 56.0898 -17.9004s45.7998 8.41992 56.0703 17.9004c8.89941 8.20996 19.6602 14.0996 31.7695 14.0996h16.2998c12.1104 0 22.8701 -5.88965 31.7705 -14.0996c10.29 -9.48047 30.0498 -17.9004 56.0898 -17.9004h16zM224 64
c-19.1201 0 -30.8604 6.16016 -34.3896 9.42969c-9.16992 8.4502 -19.2002 14.3398 -29.6104 18.0703v228.5c0 52.9404 43.0596 96 96 96s96 -43.0596 96 -96v-16c0 -8.83984 -7.16016 -16 -16 -16h-32c-8.83984 0 -16 7.16016 -16 16v16c0 17.6396 -14.3604 32 -32 32
s-32 -14.3604 -32 -32v-96h192v96c0 52.9404 43.0596 96 96 96s96 -43.0596 96 -96v-16c0 -8.83984 -7.16016 -16 -16 -16h-32c-8.83984 0 -16 7.16016 -16 16v16c0 17.6396 -14.3604 32 -32 32s-32 -14.3604 -32 -32v-228.51
c-10.4102 -3.73047 -20.4404 -9.61035 -29.6104 -18.0703c-3.5293 -3.25977 -15.2695 -9.41992 -34.3896 -9.41992v96h-192v-96z" />
    <glyph glyph-name="tint-slash" unicode="&#xf5c7;" horiz-adv-x="640" 
d="M633.82 -10.0996c6.97949 -5.43066 8.22949 -15.4805 2.81934 -22.4502l-19.6396 -25.2705c-5.42969 -6.97949 -15.4805 -8.23926 -22.46 -2.80957l-588.36 454.729c-6.97949 5.43066 -8.22949 15.4805 -2.80957 22.4502l19.6396 25.2705
c5.41992 6.97949 15.4805 8.22949 22.46 2.80957l186.82 -144.399c21.6201 33.7197 42.9697 73.3398 58.4902 125.68c9 30.1201 50.5 28.7803 58.4395 0c46.9902 -158.48 146.78 -200.061 146.78 -311.82c0 -5.70996 -0.509766 -11.2998 -1.03027 -16.8701zM144 114.09
c0 29.7803 7.30957 54.6299 18.7197 78.1299l273.681 -211.52c-31.0303 -27.7402 -71.6904 -44.7002 -116.4 -44.7002c-97.2803 0 -176 79.6504 -176 178.09z" />
    <glyph glyph-name="tooth" unicode="&#xf5c9;" horiz-adv-x="448" 
d="M443.98 351.75c10.1299 -41.6299 0.419922 -80.8203 -21.5303 -110.43c-23.3604 -31.5703 -32.6807 -68.6504 -36.29 -107.351c-4.41016 -47.1602 -10.3301 -94.1699 -20.9404 -140.319l-7.7998 -33.9502c-3.18945 -13.8701 -15.4902 -23.7002 -29.6699 -23.7002
c-13.9697 0 -26.1504 9.5498 -29.54 23.1602l-34.4697 138.42c-4.56055 18.3096 -20.96 31.1602 -39.7598 31.1602c-18.8008 0 -35.2002 -12.8398 -39.7607 -31.1602l-34.4697 -138.42c-3.38965 -13.6104 -15.5703 -23.1602 -29.54 -23.1602
c-14.1797 0 -26.4795 9.83008 -29.6699 23.7002l-7.7998 33.9502c-10.6104 46.1592 -16.54 93.1592 -20.9404 140.319c-3.60938 38.6904 -12.9297 75.7803 -36.29 107.351c-21.9199 29.6201 -31.6299 68.8096 -21.5 110.43c11.0098 45.2197 47.1104 82.0498 92.0098 93.7197
c23.4307 6.08984 46.1104 0.540039 66.8105 -10.3096l100.51 -64.6201c7.83984 -5.05957 17.6504 -2.15039 22.1104 4.7998c4.78027 7.44043 2.62012 17.3398 -4.7998 22.1104l-28.3203 18.21c3.54004 1.75 7.25 3.08984 10.5 5.47949
c26.1396 19.2305 56.9502 32.6904 89.1396 24.3301c44.9004 -11.6602 81 -48.5 92.0107 -93.7197z" />
    <glyph glyph-name="umbrella-beach" unicode="&#xf5ca;" horiz-adv-x="640" 
d="M115.38 311.1c-10.0801 3.66992 -14.1104 16.3203 -7.41992 24.7207c59.75 74.8398 152.65 116.689 248.53 111.8c-52.79 -29.4102 -103.811 -92.1602 -139 -173.7zM247.63 262.94c44.4902 101.979 114.74 171.14 172.76 171.149c7.95996 0 15.6904 -1.2998 23.0908 -4
c61.3291 -22.3203 78.3896 -132.6 42.6299 -253.979zM521.48 387.5c76.5293 -57.9199 120.76 -149.67 118.439 -245.36c-0.259766 -10.7393 -11.4795 -17.8398 -21.5703 -14.1699l-102.619 37.3604c17.5293 58.75 24.6895 117.09 18.9492 166.979
c-2.37012 20.5908 -6.97949 38.8906 -13.1992 55.1904zM560 0.0195312c8.83984 0 16 -7.15918 16 -16v-32.0098c0 -8.83984 -7.16016 -16.0098 -16 -16.0098h-544c-8.83984 0 -16 7.16992 -16 16.0098v32.0098c0 8.85059 7.16016 16.0107 16 16.0107h236.96l72.9004 200.37
l60.1396 -21.9004l-64.9404 -178.48h238.94z" />
    <glyph glyph-name="vector-square" unicode="&#xf5cb;" 
d="M512 320c0 -17.6699 -14.3301 -32 -32 -32v-192c17.6699 0 32 -14.3301 32 -32v-96c0 -17.6699 -14.3301 -32 -32 -32h-96c-17.6699 0 -32 14.3301 -32 32h-192c0 -17.6699 -14.3301 -32 -32 -32h-96c-17.6699 0 -32 14.3301 -32 32v96c0 17.6699 14.3301 32 32 32v192
c-17.6699 0 -32 14.3301 -32 32v96c0 17.6699 14.3301 32 32 32h96c17.6699 0 32 -14.3301 32 -32h192c0 17.6699 14.3301 32 32 32h96c17.6699 0 32 -14.3301 32 -32v-96zM416 384v-32h32v32h-32zM64 384v-32h32v32h-32zM96 0v32h-32v-32h32zM448 0v32h-32v-32h32zM416 96
v192h-32c-17.6699 0 -32 14.3301 -32 32v32h-192v-32c0 -17.6699 -14.3301 -32 -32 -32h-32v-192h32c17.6699 0 32 -14.3301 32 -32v-32h192v32c0 17.6699 14.3301 32 32 32h32z" />
    <glyph glyph-name="weight-hanging" unicode="&#xf5cd;" 
d="M510.28 2.13965c8.33008 -33.3096 -14.6602 -66.1396 -46.2998 -66.1396h-415.95c-31.6504 0 -54.6406 32.8301 -46.3105 66.1396l73.0498 292.13c3.79004 15.1807 16.4404 25.7207 30.8701 25.7207h60.25c-3.58008 10.0498 -5.87988 20.7197 -5.87988 32
c0 53.0195 42.9805 96 96 96c53.0205 0 96 -42.9805 96 -96c0 -11.2803 -2.30957 -21.9502 -5.87988 -32h60.25c14.4297 0 27.0703 -10.5303 30.8701 -25.7207zM256 320c17.6396 0 32 14.3604 32 32s-14.3604 32 -32 32s-32 -14.3604 -32 -32s14.3604 -32 32 -32z" />
  </font>
</defs>
</svg>
