<?xml version="1.0" standalone="no"?>
<!DOCTYPE svg PUBLIC "-//W3C//DTD SVG 1.1//EN" "http://www.w3.org/Graphics/SVG/1.1/DTD/svg11.dtd" >
<svg xmlns="http://www.w3.org/2000/svg" xmlns:xlink="http://www.w3.org/1999/xlink" version="1.1">
<metadata>
Created by FontForge 20200314 at Mon Oct  5 09:52:19 2020
 By Robert Madole
Copyright (c) Font Awesome
</metadata>
<!-- Font Awesome Pro 5.15.1 by @fontawesome - https://fontawesome.com License - https://fontawesome.com/license (Commercial License) --><defs>
<font id="FontAwesome5Duotone-Solid" horiz-adv-x="640" >
  <font-face 
    font-family="Font Awesome 5 Duotone Solid"
    font-weight="900"
    font-stretch="normal"
    units-per-em="512"
    panose-1="2 0 5 3 0 0 0 0 0 0"
    ascent="448"
    descent="-64"
    bbox="-0.0908203 -65.0146 640.072 449"
    underline-thickness="25"
    underline-position="-50"
    unicode-range="U+0020-10F8FF"
  />
    <missing-glyph />
    <glyph glyph-name="road-primary" unicode="&#xf018;" horiz-adv-x="576" 
d="M573.19 45.3301c9.25977 -21.1904 -5.5 -45.3301 -27.7305 -45.3301h-196.84l-10.3105 97.6797c-0.847656 8.03418 -7.65234 14.3193 -15.9092 14.3203h-68.8008c-8.25684 -0.000976562 -15.0615 -6.28613 -15.9092 -14.3203l-10.3105 -97.6797h-196.84
c-22.2305 0 -36.9902 24.1396 -27.7402 45.3301l139.79 320c4.56055 10.8721 15.2441 18.5264 27.7305 18.6699h97.5898l-2.49023 -23.1602c-0.0292969 -0.27832 -0.0449219 -0.553711 -0.0449219 -0.839844c0 -4.41504 3.58496 -8 8 -8h0.0449219h29.1201
c0.0146484 0 0.0292969 -0.00878906 0.0449219 -0.00878906c4.41504 0 8 3.58496 8 8c0 0.287109 -0.015625 0.570312 -0.0449219 0.848633l-2.4502 23.1602h97.5898c11.9199 0 22.75 -7.29004 27.7207 -18.6699zM255.81 269.26
c-0.0439453 -0.417969 -0.0654297 -0.830078 -0.0654297 -1.25977c0 -6.62207 5.375 -11.998 11.9961 -12h40.54c0.0253906 0 0.0507812 -0.0126953 0.0761719 -0.0126953c6.62305 0 12 5.37695 12 12c0 0.429688 -0.0224609 0.854492 -0.0664062 1.27246l-4.59961 43.5801
c-0.424805 4.01758 -3.82617 7.16016 -7.95508 7.16016h-0.0449219h-39.29c-0.015625 0 -0.0302734 -0.0078125 -0.0449219 -0.0078125c-4.12891 0 -7.53125 -3.13477 -7.95508 -7.15234zM315.64 144c8.83008 0.000976562 15.999 7.15332 15.999 15.9834
c0 0.573242 -0.0302734 1.13867 -0.0888672 1.69629l-5.06934 48c-0.848633 8.03418 -7.65332 14.3193 -15.9102 14.3203h-45.1504c-8.25684 -0.000976562 -15.0615 -6.28613 -15.9102 -14.3203l-5.06934 -48c-0.0595703 -0.557617 -0.0888672 -1.10645 -0.0888672 -1.67969
c0 -8.83008 7.16895 -15.999 15.998 -16h55.29z" />
    <glyph glyph-name="tachometer-primary" unicode="&#xf0e4;" horiz-adv-x="576" 
d="M283.9 127.59l61.3398 184c3.25195 9.40039 12.1865 16.1592 22.6875 16.1592c13.2461 0 24 -10.7539 24 -24c0 -2.56055 -0.414062 -5.03516 -1.1582 -7.34863l-61.3291 -184c13.8047 -11.5244 22.5947 -28.8584 22.5947 -48.2295
c0 -11.7344 -3.30371 -22.7705 -8.91504 -32.1709h-110.24c-5.61523 9.45508 -8.84082 20.4922 -8.84082 32.2764c0 33.7812 26.5117 61.4912 59.8408 63.3135h0.0205078z" />
    <glyph glyph-name="laptop-primary" unicode="&#xf109;" 
d="M512 384v-256h-384v256h384zM624 32c8.83105 0 16 -7.16895 16 -16v-16c-0.104492 -35.2744 -28.7256 -63.8955 -64 -64h-512c-35.2744 0.104492 -63.8955 28.7256 -64 64v16c0 8.83105 7.16895 16 16 16h239.23c-0.230469 -14.5303 14.0791 -32 32.7695 -32h60.7998
c18.0303 0 32 12.1904 32.7402 32h242.46z" />
    <glyph glyph-name="car-primary" unicode="&#xf1b9;" horiz-adv-x="512" 
d="M500 272c6.62207 -0.000976562 11.9971 -5.37207 11.9971 -11.9951c0 -1.00488 -0.124023 -1.98145 -0.357422 -2.91504l-6 -24c-1.30371 -5.21582 -6.02246 -9.08887 -11.6396 -9.08984h-20.0703c13.4941 -11.6309 22.0225 -28.8174 22.0703 -48v-48
c0 -35.3223 -28.6777 -64 -64 -64h-352c-35.3223 0 -64 28.6777 -64 64v48c0.046875 19.1855 8.58008 36.374 22.0801 48h-20.0801c-5.6123 0.00585938 -10.3271 3.87793 -11.6299 9.08984l-6 24c-0.233398 0.933594 -0.358398 1.90527 -0.358398 2.91016
c0 6.61914 5.37109 11.9932 11.9883 12h59.8701l16.6299 41.5996c16.3506 41.2559 56.5762 70.4014 103.621 70.4014c0.126953 0 0.25293 -0.000976562 0.378906 -0.000976562h127c0.128906 0 0.205078 0.0634766 0.333984 0.0634766
c47.0381 0 87.3076 -29.209 103.646 -70.4639l16.6396 -41.5996h59.8799zM147.93 289.83l-19.9297 -49.8301h256l-19.9297 49.8301c-7.07715 17.6885 -24.3672 30.1699 -44.5703 30.1699h-127c-20.2031 0 -37.4932 -12.4814 -44.5703 -30.1699zM96 192
c-19.2002 0 -32 -12.7998 -32 -31.9004c0 -19.0996 12.7998 -31.8994 32 -31.8994s48 -3.19043 48 15.9502c0 19.1396 -28.7998 47.8496 -48 47.8496zM368 144.15c0 -19.1504 28.7998 -15.9502 48 -15.9502s32 12.7598 32 31.8994c0 19.1406 -12.7998 31.9004 -32 31.9004
s-48 -28.71 -48 -47.8496z" />
    <glyph glyph-name="binoculars-primary" unicode="&#xf1e5;" horiz-adv-x="512" 
d="M63.9102 288c0.479492 17.6299 14.2998 32 31.9297 32h96.1602v-160h-32v-160c0 -17.6611 -14.3389 -32 -32 -32h-96c-17.6611 0 -32 14.3389 -32 32v44c3.45996 129.78 61.4004 150.16 63.9102 244zM448.09 288c2.50977 -93.8398 60.4502 -114.22 63.9102 -244v-44
c0 -17.6611 -14.3389 -32 -32 -32h-96c-17.6611 0 -32 14.3389 -32 32v160h-32v160h96.1602c17.6299 0 31.4502 -14.3799 31.9297 -32z" />
    <glyph glyph-name="bell-slash-primary" unicode="&#xf1f6;" 
d="M633.82 -10.0898c3.77441 -2.92773 6.18652 -7.5127 6.18652 -12.6553c0 -3.69727 -1.25684 -7.10449 -3.36719 -9.81445l-19.6396 -25.2705c-2.92871 -3.7666 -7.50781 -6.17285 -12.6445 -6.17285c-3.70703 0 -7.12109 1.26367 -9.83594 3.38281l-588.34 454.71
c-3.76562 2.92871 -6.1709 7.50781 -6.1709 12.6426c0 3.69434 1.25488 7.09766 3.36133 9.80762l19.6299 25.29c2.92871 3.76367 7.50684 6.16797 12.6406 6.16797c3.7041 0 7.11621 -1.26172 9.8291 -3.37793z" />
    <glyph glyph-name="street-view-primary" unicode="&#xf21d;" horiz-adv-x="512" 
d="M256 320c-35.3223 0 -64 28.6777 -64 64s28.6777 64 64 64s64 -28.6777 64 -64s-28.6777 -64 -64 -64zM304 304c26.4922 0 48 -21.5078 48 -48v-96c0 -17.6611 -14.3389 -32 -32 -32v-96c0 -17.6611 -14.3389 -32 -32 -32h-64c-17.6611 0 -32 14.3389 -32 32v96
c-17.6611 0 -32 14.3389 -32 32v96c0 26.4922 21.5078 48 48 48h11.7998c10.9844 -5.10449 23.374 -7.9541 36.2744 -7.9541c12.9014 0 25.1416 2.84961 36.126 7.9541h11.7998z" />
    <glyph glyph-name="map-pin-primary" unicode="&#xf276;" horiz-adv-x="288" 
d="M144 448c79.4756 0 144 -64.5244 144 -144s-64.5244 -144 -144 -144s-144 64.5244 -144 144s64.5244 144 144 144zM144 372c6.62305 0 12 5.37695 12 12s-5.37695 12 -12 12c-50.748 -0.0605469 -91.9395 -41.252 -92 -92c0 -6.62305 5.37695 -12 12 -12
s12 5.37695 12 12c0.0380859 37.5127 30.4873 67.9619 68 68z" />
    <glyph glyph-name="map-signs-primary" unicode="&#xf277;" horiz-adv-x="512" 
d="M456 224c13.2461 0 24 -10.7539 24 -24v-80c0 -13.2461 -10.7539 -24 -24 -24h-385.37c-8.8291 0 -16.8379 3.5791 -22.6299 9.37012l-43.3096 43.3096c-2.89746 2.89648 -4.69043 6.90137 -4.69043 11.3174s1.79297 8.41699 4.69043 11.3125l43.3096 43.3203
c5.79199 5.79102 13.8008 9.37012 22.6299 9.37012h385.37zM507.31 363.31c2.89746 -2.89551 4.69043 -6.90039 4.69043 -11.3164s-1.79297 -8.41699 -4.69043 -11.3135l-43.3096 -43.3096c-5.79199 -5.79102 -13.8008 -9.37012 -22.6299 -9.37012h-385.37
c-13.2461 0 -24 10.7539 -24 24v80c0 13.2461 10.7539 24 24 24h385.37c8.8291 0 16.8379 -3.5791 22.6299 -9.37012z" />
    <glyph glyph-name="tachometer-alt-primary" unicode="&#xf3fd;" horiz-adv-x="576" 
d="M283.9 127.59l61.3398 184c3.25195 9.40039 12.1865 16.1592 22.6875 16.1592c13.2461 0 24 -10.7539 24 -24c0 -2.56055 -0.414062 -5.03516 -1.1582 -7.34863l-61.3291 -184c13.8047 -11.5244 22.5947 -28.8584 22.5947 -48.2295
c0 -11.7344 -3.30371 -22.7705 -8.91504 -32.1709h-110.24c-5.61523 9.45508 -8.84082 20.4922 -8.84082 32.2764c0 33.7812 26.5117 61.4912 59.8408 63.3135h0.0205078z" />
    <glyph glyph-name="route-primary" unicode="&#xf4d7;" horiz-adv-x="512" 
d="M96 192c52.9834 0 96 -43.0166 96 -96c0 -53 -96 -160 -96 -160s-96 107 -96 160c0 52.9834 43.0166 96 96 96zM96 64c17.6611 0 32 14.3389 32 32s-14.3389 32 -32 32s-32 -14.3389 -32 -32s14.3389 -32 32 -32zM416 448c52.9834 0 96 -43.0166 96 -96
c0 -53 -96 -160 -96 -160s-96 107 -96 160c0 52.9834 43.0166 96 96 96zM416 320c17.6611 0 32 14.3389 32 32s-14.3389 32 -32 32s-32 -14.3389 -32 -32s14.3389 -32 32 -32z" />
    <glyph glyph-name="book-open-primary" unicode="&#xf518;" horiz-adv-x="576" 
d="M264.73 360.36c4.35352 -2.63867 7.25 -7.41113 7.25 -12.8691v-0.121094v-364.12c0 -11.5195 -12.5908 -18.8096 -23.2109 -13.46c-69.1797 34.8398 -169.279 44.3496 -218.77 46.9502c-16.8701 0.879883 -30 14.4199 -30 30.6602v337.85
c0 17.75 15.3604 31.75 33.7803 30.7002c54.7998 -3.12012 163.72 -14.4307 230.95 -55.5898z" />
    <glyph glyph-name="air-freshener-primary" unicode="&#xf5d0;" horiz-adv-x="384" 
d="M378.94 126.59c11.75 -12.1494 1.71973 -30.5898 -16.6406 -30.5898h-138.3v-32h-64v32h-138.3c-18.3604 0 -28.3906 18.4404 -16.6406 30.5898l94.2402 97.4102h-49.2197c-15.2998 0 -23.6602 16.5996 -13.8604 27.5303l113.33 126.47
c-3.4834 6.55469 -5.50488 14.0762 -5.5498 22c0 26.4922 21.5078 48 48 48s48 -21.5078 48 -48c-0.0449219 -7.92383 -2.06641 -15.4453 -5.5498 -22l113.33 -126.47c9.7998 -10.9307 1.43945 -27.5303 -13.8604 -27.5303h-49.2197zM192 384c8.83105 0 16 7.16895 16 16
s-7.16895 16 -16 16s-16 -7.16895 -16 -16s7.16895 -16 16 -16z" />
    <glyph glyph-name="apple-alt-primary" unicode="&#xf5d1;" horiz-adv-x="448" 
d="M350.86 319c26 -4.66699 47.3096 -18.668 63.9229 -42.001c14.667 -20.667 24.667 -46.667 30 -78c2.17871 -13.3213 3.26855 -26.7842 3.26855 -40.3877c0 -15.2363 -1.42285 -30.4404 -4.26855 -45.6123c-8 -47.333 -23.9805 -87 -47.9404 -119
c-28.667 -38.667 -64.624 -58 -107.871 -58c-10.667 0 -22.334 3.33301 -35.001 10c-8.88379 5.31543 -18.5254 7.97363 -28.9238 7.97363c-10.4795 0 -20.1611 -2.6582 -29.0449 -7.97363c-12.667 -6.66699 -24.334 -10 -35.001 -10c-43.2334 0 -79.167 19.333 -107.801 58
c-24 32 -39.9805 71.667 -47.9404 119c-2.84277 15.1543 -4.26367 30.5068 -4.26367 46.0576c0 13.3271 1.08789 26.6416 3.26367 39.9434c5.33301 31.333 15.333 57.333 30 78c16.667 23.333 37.9736 37.333 63.9199 42c16 2.66699 37.9736 0.333984 65.9199 -6.99902
c24 -6.66699 44.3105 -14.667 60.9307 -24c16.667 9.33301 36.9766 17.333 60.9297 24c27.9531 7.33301 49.9199 9.66602 65.9004 6.99902z" />
    <glyph glyph-name="backpack-primary" unicode="&#xf5d4;" horiz-adv-x="448" 
d="M96 -64v96h256v-96h-256zM320 368c70.6455 0 128 -57.3545 128 -128v-240c0 -35.3223 -28.6777 -64 -64 -64v160c-0.0380859 35.3047 -28.6953 63.9619 -64 64h-192c-35.3047 -0.0380859 -63.9619 -28.6953 -64 -64v-160c-35.3223 0 -64 28.6777 -64 64v240
c0 70.6455 57.3545 128 128 128h8v24c0.0332031 30.8916 25.1084 55.9668 56 56h64c30.8916 -0.0332031 55.9668 -25.1084 56 -56v-24h8zM184 392v-24h80v24c0 4.41504 -3.58496 8 -8 8h-64c-4.41504 0 -8 -3.58496 -8 -8zM320 248v16c0 4.41504 -3.58496 8 -8 8h-176
c-4.41504 0 -8 -3.58496 -8 -8v-16c0 -4.41504 3.58496 -8 8 -8h176c4.41504 0 8 3.58496 8 8z" />
    <glyph glyph-name="bell-school-primary" unicode="&#xf5d5;" horiz-adv-x="512" 
d="M208 448c114.88 0 208 -93.1201 208 -208s-93.1201 -208 -208 -208s-208 93.1201 -208 208s93.1201 208 208 208zM208 160c44.1299 0.0498047 79.9502 35.8701 80 80c0 44.1533 -35.8467 80 -80 80s-80 -35.8467 -80 -80s35.8467 -80 80 -80zM64 48.46
c39.9717 -30.3389 90.1904 -48.3506 144.194 -48.3506s103.834 18.0117 143.806 48.3506v-80.46c0 -17.6611 -14.3389 -32 -32 -32h-224c-17.6611 0 -32 14.3389 -32 32v80.46z" />
    <glyph glyph-name="bell-school-slash-primary" unicode="&#xf5d6;" 
d="M633.82 -10.0898c3.77441 -2.92773 6.18652 -7.5127 6.18652 -12.6553c0 -3.69727 -1.25684 -7.10449 -3.36719 -9.81445l-19.6396 -25.2705c-2.92871 -3.7666 -7.50781 -6.17285 -12.6445 -6.17285c-3.70703 0 -7.12109 1.26367 -9.83594 3.38281l-588.34 454.71
c-3.76562 2.92871 -6.1709 7.50781 -6.1709 12.6426c0 3.69434 1.25488 7.09766 3.36133 9.80762l19.6299 25.29c2.92871 3.76367 7.50684 6.16797 12.6406 6.16797c3.7041 0 7.11621 -1.26172 9.8291 -3.37793z" />
    <glyph glyph-name="bone-primary" unicode="&#xf5d7;" 
 />
    <glyph glyph-name="bone-break-primary" unicode="&#xf5d8;" 
d="M320 165.49l-63 -62.9502c-5.79492 -5.79297 -9.3584 -13.8301 -9.3584 -22.6631c0 -5.12891 1.20898 -9.97852 3.3584 -14.2773l11 -21.9297c4.99902 -9.99609 7.84473 -21.3545 7.84473 -33.2822c0 -41.0566 -33.333 -74.3896 -74.3896 -74.3896
c-20.5146 0 -39.1016 8.32227 -52.5654 21.7715l-5.39941 5.40039c-13.4775 13.4668 -21.79 32.0957 -21.79 52.6348c0 8.20508 1.33203 16.1016 3.79004 23.4854c0.423828 1.27148 0.655273 2.63086 0.655273 4.04395c0 7.05859 -5.73145 12.79 -12.79 12.79
c-1.41406 0 -2.77344 -0.229492 -4.0459 -0.654297c-7.38379 -2.45801 -15.3027 -3.81934 -23.5078 -3.81934c-20.5391 0 -39.1445 8.3418 -52.6113 21.8193l-5.40039 5.40039c-13.4385 13.4619 -21.6709 32.0078 -21.6709 52.5127
c0 41.0566 33.334 74.3896 74.3906 74.3896c11.8965 0 23.1436 -2.79883 33.1201 -7.77246l21.9297 -11c4.2998 -2.14941 9.18359 -3.38184 14.3135 -3.38184c8.83203 0 16.834 3.58691 22.627 9.38184l63 63l26.5 -64z" />
    <glyph glyph-name="book-alt-primary" unicode="&#xf5d9;" horiz-adv-x="448" 
d="M96 64c-16 0 -32 -12.7998 -32 -32s12.7998 -32 32 -32h328c13.2461 0 24 -10.7539 24 -24v-16c0 -13.2461 -10.7539 -24 -24 -24h-328c-52.9834 0 -96 43.0166 -96 96v320c0 52.9834 43.0166 96 96 96h320c17.6611 0 32 -14.3389 32 -32v-328
c0 -13.2461 -10.7539 -24 -24 -24h-328z" />
    <glyph glyph-name="book-reader-primary" unicode="&#xf5da;" horiz-adv-x="512" 
d="M233.59 206.9c3.83301 -2.33789 6.38086 -6.54785 6.38086 -11.3623c0 -0.0332031 0 -0.0654297 -0.000976562 -0.0976562v-246c0 -10.1602 -11.1094 -16.5908 -20.4795 -11.8701c-61 30.75 -149.34 39.1396 -193 41.4297
c-14.9004 0.780273 -26.4902 12.7305 -26.4902 27.0596v222.801c0 15.6299 13.5498 28.0098 29.7998 27.04c48.3604 -2.7002 144.46 -12.6807 203.79 -49zM482.2 255.9c16.25 0.919922 29.7998 -11.4102 29.7998 -27.04v-222.86c0 -14.29 -11.5801 -26.2402 -26.46 -27.0195
c-43.6797 -2.29004 -132 -10.6807 -193 -41.4004c-9.40039 -4.73047 -20.54 1.70996 -20.54 11.9004v245.789c0 0.0351562 -0.0146484 0.0595703 -0.0146484 0.09375c0 4.87109 2.57422 9.14551 6.43457 11.5371c59.3203 36.2695 155.43 46.2598 203.78 49z" />
    <glyph glyph-name="bus-school-primary" unicode="&#xf5dd;" horiz-adv-x="512" 
d="M488 336c13.2461 0 24 -10.7539 24 -24v-80c0 -13.2461 -10.7539 -24 -24 -24h-24v-20.9004c9.38965 -5.58008 16 -15.3799 16 -27.0996v-128c0 -17.6611 -14.3389 -32 -32 -32h-384c-17.6611 0 -32 14.3389 -32 32v128c0 11.7197 6.61035 21.5303 16 27.0996v20.9004
h-24c-13.2461 0 -24 10.7539 -24 24v80c0 13.2461 10.7539 24 24 24h24v32c0 44.7998 92.1104 80 208 80s208 -35.2002 208 -80v-32h24zM160 376v-16c0 -4.41504 3.58496 -8 8 -8h176c4.41504 0 8 3.58496 8 8v16c0 4.41504 -3.58496 8 -8 8h-176
c-4.41504 0 -8 -3.58496 -8 -8zM112 64c17.6611 0 32 14.3389 32 32s-14.3389 32 -32 32s-32 -14.3389 -32 -32s14.3389 -32 32 -32zM240 192v128h-96c-17.6611 0 -32 -14.3389 -32 -32v-64c0 -17.6611 14.3389 -32 32 -32h96zM272 320v-128h96c17.6611 0 32 14.3389 32 32
v64c0 17.6611 -14.3389 32 -32 32h-96zM400 64c17.6611 0 32 14.3389 32 32s-14.3389 32 -32 32s-32 -14.3389 -32 -32s14.3389 -32 32 -32z" />
    <glyph glyph-name="car-battery-primary" unicode="&#xf5df;" horiz-adv-x="512" 
d="M480 320c17.6611 0 32 -14.3389 32 -32v-256c0 -17.6611 -14.3389 -32 -32 -32h-448c-17.6611 0 -32 14.3389 -32 32v256c0 17.6611 14.3389 32 32 32h448zM192 184v16c0 4.41504 -3.58496 8 -8 8h-112c-4.41504 0 -8 -3.58496 -8 -8v-16c0 -4.41504 3.58496 -8 8 -8h112
c4.41504 0 8 3.58496 8 8zM448 184v16c0 4.41504 -3.58496 8 -8 8h-40v40c0 4.41504 -3.58496 8 -8 8h-16c-4.41504 0 -8 -3.58496 -8 -8v-40h-40c-4.41504 0 -8 -3.58496 -8 -8v-16c0 -4.41504 3.58496 -8 8 -8h40v-40c0 -4.41504 3.58496 -8 8 -8h16
c4.41504 0 8 3.58496 8 8v40h40c4.41504 0 8 3.58496 8 8z" />
    <glyph glyph-name="car-bump-primary" unicode="&#xf5e0;" horiz-adv-x="576" 
d="M575.67 -44.4404c2.06055 -9.90918 -5.84961 -19.2695 -16.1299 -19.2695h-158.9c-10.29 0 -18.1895 9.34961 -16.1299 19.2695c9.07031 43.75 48.4199 76.6709 95.5801 76.6709s86.5098 -32.9209 95.5801 -76.6709zM483.89 238.79
c14.9199 -33.2197 -0.330078 -72.0801 -34.0498 -86.79l-335.84 -146.36c-33.71 -14.6992 -73.1396 0.360352 -88.0596 33.5908l-13.5 30.0791l-6.75 15c-3.60547 8.0791 -5.6582 17.0811 -5.6582 26.4922c0 18.3711 7.6377 34.9717 19.9082 46.7979l-3.15039 86.2207
c-1.71973 47.3193 25.5596 90.2695 69.5098 109.43l121.16 52.8096c14.459 6.35938 30.5566 9.95215 47.3535 9.95215c31.6641 0 60.4199 -12.5449 81.5664 -32.9316l62.6299 -60.2998c26.8799 1.41016 53.0898 -13.2002 64.6201 -38.9004l6.75977 -15zM102.18 72.6396
c18.3203 7.99023 47.1406 16.9805 39.0605 34.9805s-47.6904 32.9795 -66 25c-18.3105 -7.98047 -25.1406 -25.29 -17.0605 -43.29s25.6807 -24.6904 44 -16.6904zM85.5303 191l244.21 106.46l-40 38.5596c-9.0957 8.70117 -21.4756 14.0234 -35.0439 14.0234
c-7.18457 0 -14.0225 -1.5 -20.2158 -4.20312l-121.16 -52.8096c-17.5498 -7.54199 -29.8174 -24.9414 -29.8174 -45.2412c0 -0.551758 0.00878906 -1.10156 0.0273438 -1.64941zM407.53 205.66c18.3193 7.99023 25.1494 25.2695 17.0693 43.2598
s-25.6797 24.6201 -44 16.6797c-18.3193 -7.93945 -33.6797 -46.9395 -25.5996 -64.9395s34.21 -3 52.5303 5z" />
    <glyph glyph-name="car-crash-primary" unicode="&#xf5e1;" 
d="M612.8 163.6c16.4746 -11.5488 27.1875 -30.6191 27.1875 -52.248c0 -5.4707 -0.69043 -10.7822 -1.9873 -15.8516l-4 -15.5l-8 -31c-7.11719 -27.584 -32.1514 -48.0059 -61.9453 -48.0059c-5.50391 0 -10.8467 0.696289 -15.9443 2.00586l-341.011 87.5801
c-27.5869 7.11426 -48.0127 32.1514 -48.0127 61.9473c0 5.51465 0.699219 10.8662 2.0127 15.9727l8 31l4 15.5c6.53027 25.3398 28.3018 44.6357 54.9004 47.54l49.5703 67.7197c20.2725 27.8604 53.0342 45.873 90.0928 45.873
c9.72559 0 19.1611 -1.24805 28.1572 -3.59277l123 -31.6201c43.8428 -11.1172 77.4102 -48.3555 83.1797 -94.0801zM329.22 292.44l-31.71 -43.3008l247.94 -63.75l-6.90039 53.2305c-2.53906 19.5625 -16.8955 35.4893 -35.6494 40.3096l-123 31.6299
c-3.8291 0.985352 -7.7998 1.55664 -11.9346 1.55664c-15.9023 0 -30.0088 -7.75 -38.7461 -19.6758zM238.67 148.83c18.5996 -4.83008 45.7305 -15.0303 50.5 3.5c4.77051 18.5303 -15.9795 53.5098 -34.5703 58.29c-18.5898 4.78027 -34.1191 -4.37988 -38.9297 -22.9199
c-4.80957 -18.54 4.41016 -34.0898 23 -38.8701zM548.59 69.1504c18.6006 -4.78027 34.0703 4.37988 38.8906 22.9199c4.81934 18.54 -4.41016 34.0898 -23 38.8701c-18.5908 4.7793 -53.6309 -15.8506 -58.4004 -34.3906
c-4.77051 -18.54 23.9199 -22.6201 42.5098 -27.3994z" />
    <glyph glyph-name="car-garage-primary" unicode="&#xf5e2;" 
d="M512.49 155.09c23.1963 -9.60742 39.4932 -32.4404 39.5098 -59.0898v-32c0 -35.3223 -28.6777 -64 -64 -64h-336c-35.3223 0 -64 28.6777 -64 64v32c0.00878906 26.6494 16.2988 49.4854 39.4902 59.0996l5.06934 12.6699l19.9307 49.8203
c16.3467 41.2559 56.5703 70.4004 103.614 70.4004h0.385742h127c0.125977 0 0.200195 0.0634766 0.326172 0.0634766c47.0459 0 87.3232 -29.208 103.674 -70.4639l19.9297 -49.8301zM211.93 193.82l-13.5293 -33.8203h243.199l-13.5293 33.8301
c-7.07715 17.6885 -24.3672 30.1699 -44.5703 30.1699h-127c-20.207 0 -37.4951 -12.4863 -44.5703 -30.1797zM160 48.2002c19.2002 0 48 -3.19043 48 15.9502c0 19.1396 -28.7998 47.8496 -48 47.8496s-32 -12.7598 -32 -31.9004c0 -19.1396 12.7998 -31.8994 32 -31.8994z
M512 80.0996c0 19.1406 -12.7998 31.9004 -32 31.9004s-48 -28.71 -48 -47.8496c0 -19.1406 28.7998 -15.9502 48 -15.9502s32 12.7598 32 31.8994z" />
    <glyph glyph-name="car-mechanic-primary" unicode="&#xf5e3;" horiz-adv-x="512" 
d="M448.49 155.09c23.1963 -9.60742 39.4932 -32.4404 39.5098 -59.0898v-32c0 -35.3223 -28.6777 -64 -64 -64h-336c-35.3223 0 -64 28.6777 -64 64v32c0.0117188 26.6533 16.3105 49.4912 39.5098 59.0996l5.07031 12.6699l19.9102 49.8203
c16.3467 41.2559 56.5703 70.4004 103.614 70.4004h0.385742h127c0.125977 0 0.200195 0.0634766 0.326172 0.0634766c47.0459 0 87.3232 -29.208 103.674 -70.4639l19.9297 -49.8301zM147.93 193.82l-13.5293 -33.8203h243.199l-13.5293 33.8301
c-7.07715 17.6885 -24.3672 30.1699 -44.5703 30.1699h-127c-20.207 0 -37.4951 -12.4863 -44.5703 -30.1797zM96 48.2002c19.2002 0 48 -3.19043 48 15.9502c0 19.1396 -28.7998 47.8496 -48 47.8496s-32 -12.7598 -32 -31.9004c0 -19.1396 12.7998 -31.8994 32 -31.8994z
M448 80.0996c0 19.1406 -12.7998 31.9004 -32 31.9004s-48 -28.71 -48 -47.8496c0 -19.1406 28.7998 -15.9502 48 -15.9502s32 12.7598 32 31.8994z" />
    <glyph glyph-name="car-side-primary" unicode="&#xf5e4;" 
d="M16 64c-8.83105 0 -16 7.16895 -16 16v112c0.0517578 29.71 20.4648 54.6836 48 61.7402l47.9102 122.029c9.43457 23.5869 32.4814 40.2295 59.4199 40.2305h213.89c0.0136719 0 0.00292969 0.0449219 0.0166016 0.0449219c20.2139 0 38.251 -9.3916 49.9834 -24.0449
l108.78 -136h16c52.9834 0 96 -43.0166 96 -96v-80c0 -8.83105 -7.16895 -16 -16 -16h-17.1396c-7.7959 54.2217 -54.5 95.9473 -110.864 95.9473s-103.061 -41.7256 -110.856 -95.9473h-130.279c-7.7959 54.2217 -54.5 95.9473 -110.864 95.9473
s-103.061 -41.7256 -110.856 -95.9473h-17.1396zM280 352v-96h166l-76.7598 96h-89.2402zM155.33 352l-38.4004 -96h115.07v96h-76.6699z" />
    <glyph glyph-name="car-tilt-primary" unicode="&#xf5e5;" 
d="M501.29 358.89c11.6025 -11.5869 18.7842 -27.6172 18.7842 -45.2939c0 -17.6455 -7.15723 -33.6338 -18.7246 -45.2158l-248.899 -248.91c-11.585 -11.585 -27.6025 -18.7539 -45.2637 -18.7539c-17.6621 0 -33.6621 7.16895 -45.2461 18.7539l-22.6309 22.6299
l-11.3096 11.3105c-11.5371 11.5596 -18.6338 27.5732 -18.6338 45.1787c0 9.35449 2.01465 18.2412 5.63379 26.251l-33.0898 77.1602c-5.85156 13.5381 -9.16406 28.5586 -9.16406 44.2354c0 30.8926 12.5938 58.8672 32.9238 79.0645l89.7998 89.7998
c20.1934 20.3311 48.2607 32.8555 79.1504 32.8555c15.6846 0 30.6162 -3.24707 44.1602 -9.10547l77.1494 -33.0195c8.00879 3.61914 16.957 5.67578 26.3105 5.67578c17.6035 0 33.5537 -7.13867 45.1094 -18.6758l11.3105 -11.3203zM218.29 76.1797
c13.5703 13.5801 36.2002 31.6904 22.6602 45.2207c-13.54 13.5293 -54.21 13.46 -67.7803 -0.110352s-13.6104 -31.6504 -0.0703125 -45.1797c13.54 -13.5303 31.6104 -13.5107 45.1904 0.0693359zM161.88 177.87l181.021 181.02l-49.3301 21.1104
c-5.79297 2.48145 -12.2109 3.88477 -18.9072 3.88477c-13.25 0 -25.2539 -5.38086 -33.9434 -14.0752l-89.7998 -89.8096c-8.68262 -8.6875 -14.0264 -20.7246 -14.0264 -33.9658c0 -6.6875 1.37109 -13.0576 3.84668 -18.8438zM444.58 302.46
c13.5801 13.54 13.5996 31.6504 0.0703125 45.1797c-13.5303 13.5303 -31.6006 13.5107 -45.1807 -0.0693359s-13.6396 -54.25 -0.109375 -67.7803c13.5293 -13.5303 31.6396 9.08984 45.2197 22.6699z" />
    <glyph glyph-name="clipboard-prescription-primary" unicode="&#xf5e8;" horiz-adv-x="384" 
d="M273.93 68.6797l30.0703 -30.0596c2.89355 -2.89551 4.68457 -6.89941 4.68457 -11.3125s-1.79102 -8.41211 -4.68457 -11.3076l-11.3096 -11.3096c-2.89648 -2.89746 -6.90137 -4.69043 -11.3174 -4.69043s-8.41699 1.79297 -11.3135 4.69043l-30.0596 30.0596
l-30.0596 -30.0596c-2.89648 -2.89746 -6.90137 -4.69043 -11.3174 -4.69043s-8.41699 1.79297 -11.3135 4.69043l-11.3096 11.3096c-2.89648 2.89648 -4.68945 6.90137 -4.68945 11.3174s1.79297 8.41602 4.68945 11.3125l30.0596 30.0605l-59.3193 59.3096h-18.7402v-48
c0 -8.83105 -7.16895 -16 -16 -16h-16c-8.83105 0 -16 7.16895 -16 16v160c0 8.83105 7.16895 16 16 16h80c0.0654297 0 0.194336 0.0400391 0.259766 0.0400391c35.2119 0 63.7998 -28.5879 63.7998 -63.7998c0 -24.2568 -13.5664 -45.3711 -33.5195 -56.1602l33.46 -33.46
l29.9004 29.8994c2.89551 2.89746 6.90039 4.69043 11.3164 4.69043s8.41699 -1.79297 11.3135 -4.69043l11.2998 -11.3096c2.89648 -2.89648 4.68945 -6.90137 4.68945 -11.3174s-1.79297 -8.41602 -4.68945 -11.3125zM176 176c8.83105 0 16 7.16895 16 16
s-7.16895 16 -16 16h-48v-32h48zM256 385c35.3223 0 64 -28.6777 64 -64h-256c0 35.3223 28.6777 64 64 64c0 35.3223 28.6777 64 64 64s64 -28.6777 64 -64zM192 361c0.0205078 0 0.0400391 -0.000976562 0.0605469 -0.000976562
c13.2119 0 23.9395 10.7266 23.9395 23.9395v0.0615234c0 13.2461 -10.7539 24 -24 24s-24 -10.7539 -24 -24s10.7539 -24 24 -24z" />
    <glyph glyph-name="compass-slash-primary" unicode="&#xf5e9;" 
d="M636.64 -32.5498l-19.6396 -25.2705c-2.92871 -3.76855 -7.50293 -6.19434 -12.6406 -6.19434c-3.69727 0 -7.1084 1.27539 -9.81934 3.38477l-588.36 454.729c-3.76562 2.92871 -6.18945 7.50195 -6.18945 12.6377c0 3.69434 1.27344 7.10352 3.37988 9.8125
l19.6299 25.2705c2.92773 3.77051 7.50488 6.19922 12.6445 6.19922c3.7002 0 7.11426 -1.27734 9.8252 -3.38965l588.351 -454.729c3.76855 -2.92871 6.19629 -7.50391 6.19629 -12.6426c0 -3.69141 -1.27246 -7.09863 -3.37695 -9.80762z" />
    <glyph glyph-name="diploma-primary" unicode="&#xf5ea;" 
d="M384 336v-140.67l95.1602 -164c0.529297 -1.29688 0.821289 -2.71484 0.821289 -4.20117c0 -6.14258 -4.9873 -11.1299 -11.1299 -11.1299c-0.145508 0 -0.27832 -0.00488281 -0.421875 0.000976562h-36.6396l-25.2002 -28.5195
c-2.0293 -2.14453 -4.90137 -3.48242 -8.08301 -3.48242c-4.65918 0 -8.64941 2.86523 -10.3066 6.93164l-68.2002 121.07l-68.1904 -121.07c-1.65723 -4.06641 -5.65137 -6.93555 -10.3115 -6.93555c-3.18164 0 -6.04883 1.3418 -8.07812 3.48633l-25.21 28.5195h-36.6396
c-0.142578 -0.00585938 -0.285156 -0.0078125 -0.428711 -0.0078125c-6.14355 0 -11.1299 4.9873 -11.1299 11.1299c0 1.48242 0.301758 2.9043 0.828125 4.19824l95.1602 164v140.68h128z" />
    <glyph glyph-name="draw-circle-primary" unicode="&#xf5ed;" horiz-adv-x="512" 
d="M256 64c35.3223 0 64 -28.6777 64 -64s-28.6777 -64 -64 -64s-64 28.6777 -64 64s28.6777 64 64 64zM256 -16c8.83105 0 16 7.16895 16 16s-7.16895 16 -16 16s-16 -7.16895 -16 -16s7.16895 -16 16 -16zM256 448c35.3223 0 64 -28.6777 64 -64s-28.6777 -64 -64 -64
s-64 28.6777 -64 64s28.6777 64 64 64zM256 368c8.83105 0 16 7.16895 16 16s-7.16895 16 -16 16s-16 -7.16895 -16 -16s7.16895 -16 16 -16zM64 256c35.3223 0 64 -28.6777 64 -64s-28.6777 -64 -64 -64s-64 28.6777 -64 64s28.6777 64 64 64zM64 176
c8.83105 0 16 7.16895 16 16s-7.16895 16 -16 16s-16 -7.16895 -16 -16s7.16895 -16 16 -16zM448 256c35.3223 0 64 -28.6777 64 -64s-28.6777 -64 -64 -64s-64 28.6777 -64 64s28.6777 64 64 64zM448 176c8.83105 0 16 7.16895 16 16s-7.16895 16 -16 16
s-16 -7.16895 -16 -16s7.16895 -16 16 -16z" />
    <glyph glyph-name="draw-polygon-primary" unicode="&#xf5ee;" horiz-adv-x="448" 
d="M64 416c35.3223 0 64 -28.6777 64 -64s-28.6777 -64 -64 -64s-64 28.6777 -64 64s28.6777 64 64 64zM64 336c8.83105 0 16 7.16895 16 16s-7.16895 16 -16 16s-16 -7.16895 -16 -16s7.16895 -16 16 -16zM384 288c-35.3223 0 -64 28.6777 -64 64s28.6777 64 64 64
s64 -28.6777 64 -64s-28.6777 -64 -64 -64zM384 368c-8.83105 0 -16 -7.16895 -16 -16s7.16895 -16 16 -16s16 7.16895 16 16s-7.16895 16 -16 16zM64 96c35.3223 0 64 -28.6777 64 -64s-28.6777 -64 -64 -64s-64 28.6777 -64 64s28.6777 64 64 64zM64 16
c8.83105 0 16 7.16895 16 16s-7.16895 16 -16 16s-16 -7.16895 -16 -16s7.16895 -16 16 -16zM384 96c35.3223 0 64 -28.6777 64 -64s-28.6777 -64 -64 -64s-64 28.6777 -64 64s28.6777 64 64 64zM384 16c8.83105 0 16 7.16895 16 16s-7.16895 16 -16 16
s-16 -7.16895 -16 -16s7.16895 -16 16 -16zM352 192c0 -35.3223 -28.6777 -64 -64 -64s-64 28.6777 -64 64s28.6777 64 64 64s64 -28.6777 64 -64zM288 176c8.83105 0 16 7.16895 16 16s-7.16895 16 -16 16s-16 -7.16895 -16 -16s7.16895 -16 16 -16z" />
    <glyph glyph-name="draw-square-primary" unicode="&#xf5ef;" horiz-adv-x="448" 
d="M64 416c35.3223 0 64 -28.6777 64 -64s-28.6777 -64 -64 -64s-64 28.6777 -64 64s28.6777 64 64 64zM64 336c8.83105 0 16 7.16895 16 16s-7.16895 16 -16 16s-16 -7.16895 -16 -16s7.16895 -16 16 -16zM384 288c-35.3223 0 -64 28.6777 -64 64s28.6777 64 64 64
s64 -28.6777 64 -64s-28.6777 -64 -64 -64zM384 368c-8.83105 0 -16 -7.16895 -16 -16s7.16895 -16 16 -16s16 7.16895 16 16s-7.16895 16 -16 16zM384 96c35.3223 0 64 -28.6777 64 -64s-28.6777 -64 -64 -64s-64 28.6777 -64 64s28.6777 64 64 64zM384 16
c8.83105 0 16 7.16895 16 16s-7.16895 16 -16 16s-16 -7.16895 -16 -16s7.16895 -16 16 -16zM64 96c35.3223 0 64 -28.6777 64 -64s-28.6777 -64 -64 -64s-64 28.6777 -64 64s28.6777 64 64 64zM64 16c8.83105 0 16 7.16895 16 16s-7.16895 16 -16 16s-16 -7.16895 -16 -16
s7.16895 -16 16 -16z" />
    <glyph glyph-name="ear-primary" unicode="&#xf5f0;" horiz-adv-x="384" 
d="M320 248c0 -4.41504 -3.58496 -8 -8 -8h-16c-4.41504 0 -8 3.58496 -8 8v8c0 52.9834 -43.0166 96 -96 96s-96 -43.0166 -96 -96c0 -17.6611 14.3389 -32 32 -32h32c35.3223 0 64 -28.6777 64 -64s-28.6777 -64 -64 -64h-8c-4.41504 0 -8 3.58496 -8 8v16
c0 4.41504 3.58496 8 8 8h8c17.6611 0 32 14.3389 32 32s-14.3389 32 -32 32h-32c-35.3076 0.0332031 -63.9668 28.6924 -64 64c0 70.6455 57.3545 128 128 128s128 -57.3545 128 -128v-8z" />
    <glyph glyph-name="engine-warning-primary" unicode="&#xf5f2;" 
d="M101.33 378.37c3.35059 -2.91113 5.45703 -7.20996 5.45703 -11.9932c0 -3.74121 -1.29785 -7.18262 -3.4668 -9.89648c-34.6455 -45.668 -55.2129 -103.035 -55.2129 -164.724c0 -61.6875 20.5674 -118.609 55.2129 -164.276
c2.15625 -2.71191 3.45898 -6.15137 3.45898 -9.88184c0 -4.77832 -2.11523 -9.06641 -5.45898 -11.9785l-12.1904 -10.4004c-6.91992 -5.88965 -17.6201 -5.0498 -23.1494 2.16016c-41.2852 53.9033 -65.8271 121.805 -65.8271 194.881
c0 73.0771 24.542 140.466 65.8271 194.369c5.5293 7.20996 16.2393 8.0498 23.1494 2.15039zM572.73 388.29c42.0703 -54.1816 67.1289 -122.71 67.1289 -196.552s-25.0586 -141.877 -67.1289 -196.059c-5.58008 -7.17969 -16.3008 -7.94922 -23.1709 -2l-12.1494 10.5
c-3.30762 2.90918 -5.38379 7.18066 -5.38379 11.9277c0 3.7627 1.3125 7.22168 3.50391 9.94238c35.335 45.8965 56.3555 103.8 56.3555 166.145c0 62.3457 -21.0205 119.819 -56.3555 165.716c-2.19141 2.7207 -3.5166 6.1875 -3.5166 9.9502
c0 4.74707 2.08887 9.01074 5.39648 11.9199l12.1494 10.5098c6.88086 6 17.5908 5.17969 23.1709 -2zM342.32 320c8.81152 -0.0224609 15.959 -7.16699 15.959 -15.9834c0 -0.541992 -0.0263672 -1.07812 -0.0791016 -1.60645l-12.7998 -128
c-0.806641 -8.07715 -7.63184 -14.4102 -15.9199 -14.4102h-19c-8.28906 0 -15.1143 6.33301 -15.9209 14.4102l-12.7998 128c-0.0527344 0.52832 -0.0791016 1.04785 -0.0791016 1.58984c0 8.83008 7.16895 16 15.999 16h44.6406zM320 128c17.6611 0 32 -14.3389 32 -32
s-14.3389 -32 -32 -32s-32 14.3389 -32 32s14.3389 32 32 32z" />
    <glyph glyph-name="gas-pump-slash-primary" unicode="&#xf5f4;" 
d="M636.64 -32.5498l-19.6396 -25.2705c-2.92871 -3.76855 -7.50293 -6.19434 -12.6406 -6.19434c-3.69727 0 -7.1084 1.27539 -9.81934 3.38477l-588.36 454.729c-3.76562 2.92871 -6.18945 7.50195 -6.18945 12.6377c0 3.69434 1.27344 7.10352 3.37988 9.8125
l19.6299 25.2705c2.92773 3.77051 7.50488 6.19922 12.6445 6.19922c3.7002 0 7.11426 -1.27734 9.8252 -3.38965l588.351 -454.729c3.76855 -2.92871 6.19629 -7.50391 6.19629 -12.6426c0 -3.69141 -1.27246 -7.09863 -3.37695 -9.80762z" />
    <glyph glyph-name="glasses-alt-primary" unicode="&#xf5f5;" horiz-adv-x="576" 
d="M560.51 222.1c13.3301 -53.4395 15.4902 -74.2197 15.4902 -118.1c0 -75.0605 -60.9395 -136 -136 -136c-72.3799 0 -131 56.6904 -135.2 128h-33.6094c-4.19043 -71.3096 -62.8203 -128 -135.19 -128c-75.0605 0 -136 60.9395 -136 136
c0 43.8799 2.16016 64.6602 15.4902 118.1l31.7598 127.261c6.75 26.8594 33.75 66.6396 85.4404 66.6494c15.6094 0 23 -2.93945 43 -9.58984c6.35547 -2.11816 10.9365 -8.11816 10.9365 -15.1816c0 -1.76758 -0.287109 -3.46777 -0.817383 -5.05859l-5.05957 -15.1797
c-2.09863 -6.38086 -8.10254 -10.9922 -15.1797 -11c-3.57031 0 -4.81055 0.790039 -18.2305 5.25977c-26.0703 8.68066 -48.21 -6.12988 -53.5303 -27.54l-29.6699 -118.72c20.7568 13.1729 45.498 20.918 71.8604 21c55.0898 0 102.27 -32.9102 123.65 -80h56.6992
c21.3809 47.0898 68.5605 80 123.65 80c26.3633 -0.078125 51.1064 -7.82324 71.8604 -21l-29.6699 118.67c-5.33008 21.4102 -27.46 36.2197 -53.5303 27.54c-13.4102 -4.46973 -14.6904 -5.20996 -18.2305 -5.20996c-7.07715 0.0078125 -13.0811 4.61914 -15.1797 11
l-5.04004 15.1602c-0.530273 1.58984 -0.824219 3.28906 -0.824219 5.05664c0 7.06348 4.58789 13.0654 10.9443 15.1836c20 6.65918 27.3701 9.59961 43 9.59961c51.6699 0 78.7197 -39.7803 85.4199 -66.6396zM136 32c39.7178 0.0439453 71.9561 32.2822 72 72
c0 39.7383 -32.2617 72 -72 72s-72 -32.2617 -72 -72s32.2617 -72 72 -72zM440 32c39.7178 0.0439453 71.9561 32.2822 72 72c0 39.7383 -32.2617 72 -72 72s-72 -32.2617 -72 -72s32.2617 -72 72 -72z" />
    <glyph glyph-name="heart-rate-primary" unicode="&#xf5f8;" 
 />
    <glyph glyph-name="inhaler-primary" unicode="&#xf5f9;" 
d="M586.15 159.22c5.79492 -5.79199 9.38086 -13.7939 9.38086 -22.627c0 -2.80859 -0.370117 -5.52637 -1.05078 -8.12305l-44.2207 -168.59c-3.60156 -13.7285 -16.1035 -23.8691 -30.9561 -23.8691c-0.015625 0 -0.0273438 -0.0107422 -0.0439453 -0.0107422h-295.26
c-17.6611 0 -32 14.3389 -32 32v192c0 17.6611 14.3389 32 32 32h122.49l35.9102 136.92c1.79883 6.86719 8.05078 11.9395 15.4785 11.9395c4.41504 0 8.41504 -1.78418 11.3115 -4.67969z" />
    <glyph glyph-name="kidneys-primary" unicode="&#xf5fb;" 
d="M639.9 224c1.18945 -42.46 -7.81055 -71.2695 -13.3506 -90.54c-11.5508 -40.0723 -48.4961 -69.4365 -92.2598 -69.46c-64.6699 0 -109.8 62 -92.3203 122.57c0.730469 2.55957 23.8398 49.5898 -25.7598 93.71c-19.7578 17.5908 -32.125 43.1855 -32.125 71.6953
c0 52.9912 43.0215 96.0127 96.0127 96.0127c24.4814 0 46.8359 -9.18262 63.8027 -24.2881c60.1895 -53.54 93.9092 -125.7 96 -199.7zM96 423.62c16.9805 15.1631 39.4629 24.4131 63.9971 24.4131c52.9941 0 96.0195 -43.0244 96.0195 -96.0195
c0 -28.46 -12.4092 -54.0439 -32.1064 -71.6338c-49.1504 -43.8398 -27.0703 -90.5703 -26.0703 -94.2695c17.1797 -60.6406 -28.1602 -122.11 -92.4697 -122.11c-43.9346 0.0117188 -80.998 29.6201 -92.3701 69.9404c-5.40039 19.1494 -14.1504 48.0596 -12.8701 90.0596
c2.25977 74 35.9502 146.15 95.8701 199.62z" />
    <glyph glyph-name="laptop-code-primary" unicode="&#xf5fc;" 
d="M624 32c8.83105 0 16 -7.16895 16 -16v-16c-0.104492 -35.2744 -28.7256 -63.8955 -64 -64h-512c-35.2744 0.104492 -63.8955 28.7256 -64 64v16c0 8.83105 7.16895 16 16 16h239.23c-0.230469 -14.5303 14.0791 -32 32.7695 -32h60.7998
c18.0303 0 32 12.1904 32.7402 32h242.46zM512 384v-256h-384v256h384zM289 197.66c2.89648 2.89648 4.68945 6.90137 4.68945 11.3174s-1.79297 8.41602 -4.68945 11.3125l-35.75 35.71l35.75 35.7197c2.89648 2.89648 4.68945 6.90137 4.68945 11.3174
s-1.79297 8.41699 -4.68945 11.3125l-11.3701 11.3105c-2.89648 2.89648 -6.90137 4.68945 -11.3174 4.68945s-8.41602 -1.79297 -11.3125 -4.68945l-58.29 -58.3398c-2.89648 -2.89648 -4.68945 -6.90137 -4.68945 -11.3174s1.79297 -8.41699 4.68945 -11.3125
l58.3496 -58.3408c2.89648 -2.89648 6.90137 -4.68945 11.3174 -4.68945s8.41699 1.79297 11.3135 4.68945zM443.35 244.66c2.88477 2.89453 4.64062 6.91113 4.64062 11.3174c0 4.42578 -1.80176 8.43457 -4.70996 11.332l-58.3398 58.3408
c-2.89648 2.89648 -6.90137 4.68945 -11.3174 4.68945s-8.41699 -1.79297 -11.3135 -4.68945l-11.3096 -11.3105c-2.89648 -2.89648 -4.68945 -6.90137 -4.68945 -11.3174s1.79297 -8.41602 4.68945 -11.3125l35.75 -35.71l-35.75 -35.7197
c-2.89648 -2.89648 -4.68945 -6.90137 -4.68945 -11.3174s1.79297 -8.41699 4.68945 -11.3125l11.3701 -11.3105c2.89648 -2.89648 6.90137 -4.68945 11.3174 -4.68945s8.41602 1.79297 11.3125 4.68945z" />
    <glyph glyph-name="layer-group-primary" unicode="&#xf5fd;" horiz-adv-x="512" 
d="M12.4102 300c-16.5498 7.48047 -16.5498 32.5 0 40l232.95 105.68c3.23633 1.47949 6.87695 2.30371 10.666 2.30371s7.38672 -0.824219 10.624 -2.30371l232.93 -105.68c16.5498 -7.48047 16.5498 -32.4902 0 -40l-232.94 -105.7
c-3.23633 -1.47949 -6.87695 -2.30371 -10.666 -2.30371s-7.38672 0.824219 -10.624 2.30371zM499.59 83.8896c16.5498 -7.5 16.5498 -32.5 0.0498047 -40l-233 -105.59c-3.23828 -1.47461 -6.87793 -2.29688 -10.666 -2.29688s-7.38574 0.822266 -10.624 2.29688
l-232.939 105.59c-16.5498 7.5 -16.5498 32.5 0 40l57.8799 26.2305l161.85 -73.3701c7.25977 -3.30176 15.4189 -5.14062 23.9082 -5.14062s16.5527 1.83887 23.8125 5.14062l161.859 73.3701z" />
    <glyph glyph-name="layer-minus-primary" unicode="&#xf5fe;" horiz-adv-x="512" 
d="M499.59 83.9004c16.5498 -7.5 16.5498 -32.5 0.0498047 -40l-233 -105.591c-3.23828 -1.47461 -6.87793 -2.29688 -10.666 -2.29688s-7.38574 0.822266 -10.624 2.29688l-232.939 105.591c-16.5498 7.5 -16.5498 32.5 0 40l58.0996 26.3301l161.641 -73.2305
c7.25977 -3.30176 15.418 -5.14062 23.9072 -5.14062s16.5527 1.83887 23.8125 5.14062l161.63 73.2305zM304 384c-8.83105 0 -16 7.16895 -16 16v32c0 8.83105 7.16895 16 16 16h192c8.83105 0 16 -7.16895 16 -16v-32c0 -8.83105 -7.16895 -16 -16 -16h-192z" />
    <glyph glyph-name="layer-plus-primary" unicode="&#xf5ff;" horiz-adv-x="512" 
d="M499.59 83.9004c16.5498 -7.5 16.5498 -32.5 0.0498047 -40l-233 -105.591c-3.23828 -1.47461 -6.87793 -2.29688 -10.666 -2.29688s-7.38574 0.822266 -10.624 2.29688l-232.939 105.591c-16.5498 7.5 -16.5498 32.5 0 40l58.5898 26.5293l161.14 -73.0596
c7.25977 -3.30176 15.4189 -5.14062 23.9082 -5.14062s16.5527 1.83887 23.8125 5.14062l161.189 73.0596zM304 304c-8.83105 0 -16 7.16895 -16 16v32c0 8.83105 7.16895 16 16 16h64v64c0 8.83105 7.16895 16 16 16h32c8.83105 0 16 -7.16895 16 -16v-64h64
c8.83105 0 16 -7.16895 16 -16v-32c0 -8.83105 -7.16895 -16 -16 -16h-64v-64c0 -8.83105 -7.16895 -16 -16 -16h-32c-8.83105 0 -16 7.16895 -16 16v64h-64z" />
    <glyph glyph-name="lips-primary" unicode="&#xf600;" 
d="M0.120117 224c0.573242 10.2773 3.71777 19.998 8.74023 28.3203c51.6699 85.6797 164.83 163.68 213.42 163.68c0 0 32.5693 0 97.7197 -50c65.1504 50 97.7197 50 97.7197 50c48.5898 0 161.75 -78 213.42 -163.68c5.0166 -8.3252 8.16016 -18.0449 8.74023 -28.3203
h-63.8799s-64 32 -160 32l-35.3799 -8.83984c-19.1748 -4.66895 -39.2051 -7.14453 -59.8086 -7.14453c-0.317383 0 -0.494141 -0.0166016 -0.811523 -0.015625c-0.317383 -0.000976562 -0.634766 -0.00195312 -0.952148 -0.00195312
c-20.6035 0 -40.4932 2.49316 -59.668 7.16211l-35.3799 8.83984c-96 0 -160 -32 -160 -32h-63.8799z" />
    <glyph glyph-name="location-slash-primary" unicode="&#xf603;" 
d="M3.37012 415.55l19.6299 25.2705c2.92773 3.77051 7.50488 6.19922 12.6445 6.19922c3.7002 0 7.11426 -1.27734 9.8252 -3.38965l588.351 -454.729c3.76855 -2.92871 6.19629 -7.50391 6.19629 -12.6426c0 -3.69141 -1.27246 -7.09863 -3.37695 -9.80762
l-19.6396 -25.2705c-2.92871 -3.76855 -7.50293 -6.19434 -12.6406 -6.19434c-3.69727 0 -7.1084 1.27539 -9.81934 3.38477l-588.36 454.729c-3.76562 2.92871 -6.18945 7.50195 -6.18945 12.6377c0 3.69434 1.27344 7.10352 3.37988 9.8125z" />
    <glyph glyph-name="lungs-primary" unicode="&#xf604;" 
d="M516.45 118.66l-8.87988 -13.3105c-2.86914 -4.30469 -7.76758 -7.14355 -13.3242 -7.14355c-3.27539 0 -6.3291 1.0127 -8.86621 2.7041l-165.38 110.25l-165.37 -110.25c-2.53711 -1.69141 -5.58398 -2.67773 -8.85938 -2.67773
c-5.55664 0 -10.4619 2.8125 -13.3301 7.11719l-8.88086 13.3105c-1.69141 2.53711 -2.67773 5.58398 -2.67773 8.85938c0 5.55664 2.81348 10.4619 7.11816 13.3301l160.88 107.25c4.30078 2.87012 7.12012 7.75684 7.12012 13.3105v170.59c0 8.83105 7.16895 16 16 16h16
c8.83105 0 16 -7.16895 16 -16v-170.59c0 -5.55371 2.81934 -10.4404 7.12012 -13.3105l160.88 -107.25c4.30859 -2.86816 7.15039 -7.76855 7.15039 -13.3281c0 -3.27344 -1.01074 -6.3252 -2.7002 -8.86133z" />
    <glyph glyph-name="map-marker-alt-slash-primary" unicode="&#xf605;" 
d="M3.37012 416.55l19.6299 25.2705c2.92773 3.77051 7.50488 6.19922 12.6445 6.19922c3.7002 0 7.11426 -1.27734 9.8252 -3.38965l588.351 -454.729c3.76855 -2.92871 6.19629 -7.50391 6.19629 -12.6426c0 -3.69141 -1.27246 -7.09863 -3.37695 -9.80762
l-19.6396 -25.2705c-2.92871 -3.76855 -7.50293 -6.19434 -12.6406 -6.19434c-3.69727 0 -7.1084 1.27539 -9.81934 3.38477l-588.36 454.729c-3.76562 2.92871 -6.18945 7.50195 -6.18945 12.6377c0 3.69434 1.27344 7.10352 3.37988 9.8125z" />
    <glyph glyph-name="map-marker-check-primary" unicode="&#xf606;" horiz-adv-x="384" 
d="M306.08 284.17l-131 -130c-1.98828 -1.97168 -4.72461 -3.19043 -7.74316 -3.19043c-3.0498 0 -5.81348 1.24316 -7.80664 3.25098l-75.7607 76.3398c-1.97363 1.98828 -3.19434 4.72656 -3.19434 7.74805c0 3.05176 1.24512 5.81836 3.25488 7.81152l26 25.8203
c1.98828 1.97461 4.72754 3.19531 7.74805 3.19531c3.05176 0 5.81836 -1.24512 7.81152 -3.25586l42.1504 -42.4893l97.2002 96.4199c1.98828 1.97168 4.72461 3.18945 7.74316 3.18945c3.04883 0 5.81348 -1.24316 7.80664 -3.25l25.8203 -26
c1.99219 -1.99121 3.22461 -4.74219 3.22461 -7.77832c0 -3.05176 -1.24512 -5.81738 -3.25488 -7.81152z" />
    <glyph glyph-name="map-marker-edit-primary" unicode="&#xf607;" horiz-adv-x="384" 
d="M282.74 324.16c3.25586 -3.25781 5.27148 -7.76172 5.27148 -12.7275c0 -4.95605 -2.00684 -9.44629 -5.25195 -12.7021l-28.2598 -28.2607l-48 48l28.2598 28.2607c3.25684 3.24414 7.75195 5.25098 12.708 5.25098c4.95508 0 9.44629 -2.00684 12.7021 -5.25098z
M100.85 212.83l85.5205 85.5098l48 -48l-85.54 -85.54l-42.8301 -4.7998c-0.334961 -0.0380859 -0.666992 -0.0664062 -1.0127 -0.0664062c-4.9668 0 -9 4.0332 -9 9c0 0.360352 0.0214844 0.716797 0.0625 1.06641z" />
    <glyph glyph-name="map-marker-exclamation-primary" unicode="&#xf608;" horiz-adv-x="384" 
d="M192 176c17.6611 0 32 -14.3389 32 -32s-14.3389 -32 -32 -32s-32 14.3389 -32 32s14.3389 32 32 32zM214.32 368c8.81152 -0.0224609 15.959 -7.16699 15.959 -15.9834c0 -0.541992 -0.0263672 -1.07812 -0.0791016 -1.60645l-12.7998 -128
c-0.806641 -8.07715 -7.63184 -14.4102 -15.9199 -14.4102h-19c-8.28906 0 -15.1143 6.33301 -15.9209 14.4102l-12.7998 128c-0.0527344 0.52832 -0.0791016 1.04785 -0.0791016 1.58984c0 8.83008 7.16895 16 15.999 16h44.6406z" />
    <glyph glyph-name="map-marker-minus-primary" unicode="&#xf609;" horiz-adv-x="384" 
d="M304 264v-16c0 -8.83105 -7.16895 -16 -16 -16h-192c-8.83105 0 -16 7.16895 -16 16v16c0 8.83105 7.16895 16 16 16h192c8.83105 0 16 -7.16895 16 -16z" />
    <glyph glyph-name="map-marker-plus-primary" unicode="&#xf60a;" horiz-adv-x="384" 
d="M304 248c0 -8.83105 -7.16895 -16 -16 -16h-72v-72c0 -8.83105 -7.16895 -16 -16 -16h-16c-8.83105 0 -16 7.16895 -16 16v72h-72c-8.83105 0 -16 7.16895 -16 16v16c0 8.83105 7.16895 16 16 16h72v72c0 8.83105 7.16895 16 16 16h16c8.83105 0 16 -7.16895 16 -16v-72
h72c8.83105 0 16 -7.16895 16 -16v-16z" />
    <glyph glyph-name="map-marker-question-primary" unicode="&#xf60b;" horiz-adv-x="384" 
d="M192 160c17.6611 0 32 -14.3389 32 -32s-14.3389 -32 -32 -32s-32 14.3389 -32 32s14.3389 32 32 32zM194.67 376c55.0801 0 88 -44.75 88 -88c0 -40.9502 -32.75 -62.4697 -64 -78.7305v-1.42969c0 -8.74219 -7.09766 -15.8398 -15.8398 -15.8398h-16.3203
c-8.74219 0 -15.8398 7.09766 -15.8398 15.8398v16.1602c0.0205078 9.41602 5.43164 17.5576 13.3301 21.5c30.6104 15.3096 50.6699 26.5 50.6699 42.5c0 19.3896 -14 40 -40 40c-17.9346 -0.0175781 -33.1182 -11.8457 -38.2002 -28.1201
c-2.14941 -6.87988 -8.10938 -11.8799 -15.3301 -11.8799h-16.8398c-8.75781 0.0332031 -15.8584 7.14551 -15.8584 15.9111c0 1.25195 0.144531 2.46973 0.418945 3.63867c8.96582 39.1221 43.9961 68.4014 85.8096 68.4502z" />
    <glyph glyph-name="map-marker-slash-primary" unicode="&#xf60c;" 
d="M3.37012 416.55l19.6299 25.2705c2.92773 3.77051 7.50488 6.19922 12.6445 6.19922c3.7002 0 7.11426 -1.27734 9.8252 -3.38965l588.351 -454.729c3.76855 -2.92871 6.19629 -7.50391 6.19629 -12.6426c0 -3.69141 -1.27246 -7.09863 -3.37695 -9.80762
l-19.6396 -25.2705c-2.92871 -3.76855 -7.50293 -6.19434 -12.6406 -6.19434c-3.69727 0 -7.1084 1.27539 -9.81934 3.38477l-588.36 454.729c-3.76562 2.92871 -6.18945 7.50195 -6.18945 12.6377c0 3.69434 1.27344 7.10352 3.37988 9.8125z" />
    <glyph glyph-name="map-marker-smile-primary" unicode="&#xf60d;" horiz-adv-x="384" 
d="M256 277.16c-14.8135 0 -26.8398 12.0264 -26.8398 26.8398s12.0264 26.8398 26.8398 26.8398s26.8398 -12.0264 26.8398 -26.8398s-12.0264 -26.8398 -26.8398 -26.8398zM128 277.16c-14.8135 0 -26.8398 12.0264 -26.8398 26.8398s12.0264 26.8398 26.8398 26.8398
s26.8398 -12.0264 26.8398 -26.8398s-12.0264 -26.8398 -26.8398 -26.8398zM290.39 212.44c3.43945 -2.93652 5.60938 -7.30762 5.60938 -12.1787c0 -3.96094 -1.44238 -7.58691 -3.8291 -10.3818c-24.2705 -28.1221 -60.1104 -45.9336 -100.136 -45.9336
s-75.9238 17.8115 -100.194 45.9336c-2.22363 2.74805 -3.56445 6.26465 -3.56445 10.0723c0 8.83008 7.16895 16 16 16c4.71484 0 8.95508 -2.04395 11.8848 -5.29199c18.3984 -21.251 45.5254 -34.7031 75.8135 -34.7031c30.2871 0 57.457 13.4521 75.8564 34.7031
c2.93555 3.43945 7.30664 5.6084 12.1787 5.6084c3.95996 0 7.58594 -1.44141 10.3809 -3.82812z" />
    <glyph glyph-name="map-marker-times-primary" unicode="&#xf60e;" horiz-adv-x="384" 
d="M276.85 205.09c2.89746 -2.89648 4.69043 -6.89648 4.69043 -11.3125s-1.79297 -8.4209 -4.69043 -11.3174l-11.3096 -11.3096c-2.89648 -2.89746 -6.89648 -4.69043 -11.3125 -4.69043s-8.4209 1.79297 -11.3174 4.69043l-50.9102 50.9092l-50.9102 -50.9092
c-2.89648 -2.89746 -6.89648 -4.69043 -11.3125 -4.69043s-8.4209 1.79297 -11.3174 4.69043l-11.3096 11.3096c-2.89746 2.89648 -4.69043 6.89648 -4.69043 11.3125s1.79297 8.4209 4.69043 11.3174l50.9092 50.9102l-50.9092 50.9102
c-2.89746 2.89648 -4.69043 6.89648 -4.69043 11.3125s1.79297 8.4209 4.69043 11.3174l11.3096 11.3096c2.89648 2.89746 6.89648 4.69043 11.3125 4.69043s8.4209 -1.79297 11.3174 -4.69043l50.9102 -50.9092l50.9102 50.9092
c2.89648 2.89746 6.89648 4.69043 11.3125 4.69043s8.4209 -1.79297 11.3174 -4.69043l11.3096 -11.3096c2.89746 -2.89648 4.69043 -6.89648 4.69043 -11.3125s-1.79297 -8.4209 -4.69043 -11.3174l-50.9092 -50.9102z" />
    <glyph glyph-name="microscope-primary" unicode="&#xf610;" horiz-adv-x="512" 
d="M464 0c26.4922 0 48 -21.5078 48 -48c0 -8.83105 -7.16895 -16 -16 -16h-480c-8.83105 0 -16 7.16895 -16 16c0 26.4922 21.5078 48 48 48h272c70.6455 0 128 57.3545 128 128s-57.3545 128 -128 128v64c105.88 0 192 -86.1201 192 -192
c-0.015625 -49.1885 -18.6875 -94.1357 -49.29 -128h1.29004zM160 128c-17.6611 0 -32 14.3389 -32 32v224c0 17.6611 14.3389 32 32 32v16c0 8.83105 7.16895 16 16 16h64c8.83105 0 16 -7.16895 16 -16v-16c17.6611 0 32 -14.3389 32 -32v-224
c0 -17.6611 -14.3389 -32 -32 -32h-12v-16c0 -8.83105 -7.16895 -16 -16 -16h-40c-8.83105 0 -16 7.16895 -16 16v16h-12z" />
    <glyph glyph-name="oil-temp-primary" unicode="&#xf614;" 
d="M416 432v-16c0 -8.83105 -7.16895 -16 -16 -16h-48v-32h48c8.83105 0 16 -7.16895 16 -16v-16c0 -8.83105 -7.16895 -16 -16 -16h-48v-32h48c8.83105 0 16 -7.16895 16 -16v-16c0 -8.83105 -7.16895 -16 -16 -16h-48v-22.75
c28.2764 -12.3408 48.0605 -40.5586 48.0605 -73.3604c0 -44.1523 -35.8467 -80 -80 -80s-80 35.8477 -80 80c0 32.8018 19.6631 61.0195 47.9395 73.3604v214.75c0 8.83105 7.16895 16 16 16h96c8.83105 0 16 -7.16895 16 -16z" />
    <glyph glyph-name="parking-slash-primary" unicode="&#xf617;" 
d="M3.37012 416.55l19.6299 25.2705c2.92773 3.77051 7.50488 6.19922 12.6445 6.19922c3.7002 0 7.11426 -1.27734 9.8252 -3.38965l588.351 -454.729c3.76855 -2.92871 6.19629 -7.50391 6.19629 -12.6426c0 -3.69141 -1.27246 -7.09863 -3.37695 -9.80762
l-19.6396 -25.2705c-2.92871 -3.76855 -7.50293 -6.19434 -12.6406 -6.19434c-3.69727 0 -7.1084 1.27539 -9.81934 3.38477l-588.36 454.729c-3.76562 2.92871 -6.18945 7.50195 -6.18945 12.6377c0 3.69434 1.27344 7.10352 3.37988 9.8125z" />
    <glyph glyph-name="pencil-paintbrush-primary" unicode="&#xf618;" horiz-adv-x="512" 
d="M19.0801 68.3203l297 296.96l113.21 -113.19l-296.93 -296.93l-107.44 -18.8398c-1.2002 -0.210938 -2.41602 -0.339844 -3.67676 -0.339844c-11.7168 0 -21.2295 9.5127 -21.2295 21.2295c0 1.25195 0.108398 2.47754 0.316406 3.66992zM497.94 388.68
c8.70801 -8.69043 14.0996 -20.7178 14.0996 -33.9814c0 -13.2627 -5.3916 -25.2773 -14.0996 -33.9678l-46 -46l-113.2 113.199l46 46c8.69043 8.70605 20.7158 14.0947 33.9766 14.0947s25.2725 -5.38867 33.9629 -14.0947z" />
    <glyph glyph-name="poop-primary" unicode="&#xf619;" horiz-adv-x="512" 
d="M118.05 208c-13.5332 11.6953 -22.124 28.9688 -22.124 48.2412c0 35.1895 28.5693 63.7598 63.7598 63.7598c0.104492 0 0.209961 0 0.314453 -0.000976562h16c0.0693359 0 0.09375 0.0722656 0.163086 0.0722656c44.0322 0 79.7803 35.748 79.7803 79.7803
c0 17.3877 -5.5752 33.4844 -15.0332 46.5977c5.51855 1.00879 11.125 1.45312 16.9336 1.45312c46.1553 0 84.6016 -33.2744 92.6367 -77.123c1.00684 -5.63672 1.49902 -11.3877 1.49902 -17.3125c0 -11.75 -2.06836 -23.0205 -5.85938 -33.4678h5.87988
c0.104492 0.000976562 0.237305 0.0146484 0.341797 0.0146484c35.1904 0 63.7598 -28.5693 63.7598 -63.7598c0 -19.2725 -8.56836 -36.5596 -22.1016 -48.2549h-275.95zM451.38 78.8301c34.3145 -5.41992 60.6416 -35.1318 60.6416 -70.96
c0 -39.666 -32.2041 -71.8701 -71.8701 -71.8701h-0.151367h-368c-39.6377 0.0332031 -71.7402 32.2266 -71.7402 71.8721c0 35.7627 26.1777 65.46 60.4004 70.958c-0.150391 0.0996094 -0.280273 0.219727 -0.419922 0.330078
c3.5293 0.548828 7.07812 0.833984 10.7598 0.839844h370c3.69531 -0.00488281 7.25684 -0.290039 10.7998 -0.839844z" />
    <glyph glyph-name="ruler-triangle-primary" unicode="&#xf61c;" horiz-adv-x="512" 
d="M310.11 110.32l38.5693 38.5693l22.6201 -22.6201l-38.5693 -38.5693c-1.44824 -1.44727 -3.44727 -2.34277 -5.6543 -2.34277s-4.20801 0.895508 -5.65625 2.34277l-11.3096 11.2998c-1.4502 1.44824 -2.34766 3.44922 -2.34766 5.65918
c0 2.20898 0.897461 4.21289 2.34766 5.66113zM174.35 246.08c-1.44922 -1.45898 -3.45898 -2.3623 -5.67578 -2.3623s-4.22461 0.90332 -5.67383 2.3623l-11.2695 11.3096c-1.44727 1.44824 -2.34277 3.4502 -2.34277 5.65625c0 2.20703 0.895508 4.20605 2.34277 5.6543
l38.5693 38.5693l22.6201 -22.6191zM83.8203 325.29l-11.3105 11.3096c-1.44629 1.44824 -2.3418 3.4502 -2.3418 5.65625c0 2.20703 0.895508 4.20605 2.3418 5.6543l38.5703 38.5703l22.6201 -22.6201l-38.5703 -38.5703
c-1.44824 -1.44727 -3.44922 -2.34277 -5.65625 -2.34277c-2.20605 0 -4.20605 0.895508 -5.65332 2.34277zM292.11 205.46l-38.5703 -38.5703c-1.44824 -1.44629 -3.44922 -2.3418 -5.65625 -2.3418s-4.20605 0.895508 -5.65332 2.3418l-11.3105 11.3105
c-1.44727 1.44727 -2.34277 3.44922 -2.34277 5.65625c0 2.20605 0.895508 4.20605 2.34277 5.65332l38.5703 38.5703l11.3193 -11.3301zM427.87 69.7002l22.6201 -22.6201l-38.5703 -38.5703c-1.44824 -1.44629 -3.44922 -2.3418 -5.65625 -2.3418
c-2.20605 0 -4.20605 0.895508 -5.65332 2.3418l-11.3105 11.3105c-1.44727 1.44727 -2.3418 3.44922 -2.3418 5.65625c0 2.20605 0.894531 4.20508 2.3418 5.65332z" />
    <glyph glyph-name="scalpel-primary" unicode="&#xf61d;" horiz-adv-x="512" 
d="M199.9 160h-0.09375c-8.83008 0 -16 7.16895 -16 16c0 3.99805 1.47461 7.66406 3.90332 10.4697l201.5 235.46c23.3096 27.25 64.29 35.0703 93.4902 14.2207c33.7598 -24.0801 38.8994 -71.6904 12.5303 -102.49l-139 -162.44
c-5.88574 -6.87598 -14.6279 -11.2373 -24.3799 -11.2373c-0.00585938 0 -0.00488281 0.0175781 -0.0107422 0.0175781h-131.939z" />
    <glyph glyph-name="scalpel-path-primary" unicode="&#xf61e;" 
d="M482.71 436.15c33.75 -24.0801 38.8896 -71.6904 12.5098 -102.49l-139 -162.44c-5.88477 -6.87598 -14.6182 -11.2188 -24.3701 -11.2197h-131.939c-0.03125 0 -0.0566406 0.0078125 -0.0878906 0.0078125c-8.83105 0 -16 7.16992 -16 16
c0 3.99902 1.46973 7.65625 3.89746 10.4619l201.5 235.46c23.3105 27.2207 64.29 35.0508 93.4902 14.2207zM632 -32c4.41504 0 8 -3.58496 8 -8v-16c0 -4.41504 -3.58496 -8 -8 -8h-80c-4.41504 0 -8 3.58496 -8 8v16c0 4.41504 3.58496 8 8 8h80zM472 -32
c4.41504 0 8 -3.58496 8 -8v-16c0 -4.41504 -3.58496 -8 -8 -8h-80c-4.41504 0 -8 3.58496 -8 8v16c0 4.41504 3.58496 8 8 8h80zM312 -32c4.41504 0 8 -3.58496 8 -8v-16c0 -4.41504 -3.58496 -8 -8 -8h-80c-4.41504 0 -8 3.58496 -8 8v16c0 4.41504 3.58496 8 8 8h80z" />
    <glyph glyph-name="skeleton-primary" unicode="&#xf620;" horiz-adv-x="512" 
d="M224 432c0 8.83105 7.16895 16 16 16h32c8.83105 0 16 -7.16895 16 -16v-336h-64v336z" />
    <glyph glyph-name="star-of-life-primary" unicode="&#xf621;" horiz-adv-x="480" 
d="M477.87 91.4502l-32 -55.4307c-2.76465 -4.79492 -7.94336 -8.02539 -13.8721 -8.02539c-2.90918 0 -5.64648 0.805664 -7.99805 2.16602l-184 106.43l-184 -106.439c-2.34961 -1.35645 -5.0752 -2.13281 -7.98047 -2.13281
c-5.92188 0 -11.1025 3.19629 -13.8691 7.98242l-32 55.4297c-1.3623 2.35352 -2.1416 5.08398 -2.1416 7.99609c0 5.9248 3.2002 11.1084 7.99121 13.874l184 106.62v211.811c0 8.83008 7.16895 16 16 16h64c8.83105 0 16 -7.16992 16 -16v-211.82l184 -106.61
c4.79492 -2.76465 8.02441 -7.94336 8.02441 -13.8711c0 -2.90137 -0.801758 -5.63086 -2.1543 -7.97852z" />
    <glyph glyph-name="stomach-primary" unicode="&#xf623;" horiz-adv-x="512" 
d="M384 352c70.6455 0 128 -57.3545 128 -128v-84.3496c0 -112.48 -91.1602 -203.65 -203.64 -203.641h-2.66016c-16.8701 0 -83.6406 1.93066 -146.71 65c-11.4805 11.4902 -23.96 18.2002 -41.0703 18.2002c-19.9199 0 -53.9199 -13.5801 -53.9199 -51.21v-16
c0 -8.83105 -7.16895 -16 -16 -16h-32c-8.83105 0 -16 7.16895 -16 16v16c0 70.6455 57.3545 128 128 128h64c35.3223 0 64 28.6777 64 64v64c0 1.90039 0.0703125 7 0.629883 12.6904c1.81836 18.4473 7.66016 36.0127 16.5 51.3096c34.7197 60 93.54 64 110.87 64z
M448 141v83c-0.0380859 35.3047 -28.6953 63.9619 -64 64c-43.8496 0 -63.1699 -42.1396 -64 -64v-64c0 -62.4004 -42.29 -102.81 -78.4004 -118c-4.79297 -1.94141 -8.18359 -6.62891 -8.18359 -12.1152c0 -4.89258 2.69141 -9.16113 6.67383 -11.4043
c8.96777 -5.16113 18.6885 -9.44922 28.7305 -12.6104c43.3701 -13.5898 98.2598 -4.58984 137.699 34.4102c26.8301 26.5195 41.4805 62.9893 41.4805 100.72z" />
    <glyph glyph-name="tachometer-alt-average-primary" unicode="&#xf624;" horiz-adv-x="576" 
d="M343.12 32h-110.24c-5.61719 9.45801 -8.84375 20.498 -8.84375 32.2871c0 23.1797 12.3672 43.4971 30.9639 54.543c2.85059 1.69629 5.87988 3.1875 9 4.41992v196.75c0 13.2461 10.7539 24 24 24s24 -10.7539 24 -24v-196.75
c23.4443 -9.29297 40.043 -32.1826 40.043 -58.918c0 -11.79 -3.30371 -22.874 -8.92285 -32.332z" />
    <glyph glyph-name="tachometer-alt-fast-primary" unicode="&#xf625;" horiz-adv-x="576" 
d="M288 128c5.62012 -0.0722656 11.0645 -0.888672 16.2402 -2.33984l108.56 144.75c4.38086 5.84082 11.3604 9.62207 19.2168 9.62207c13.25 0 24.0068 -10.7568 24.0068 -24.0068c0 -5.39453 -1.80566 -10.415 -4.81348 -14.4258l-108.56 -144.739
c5.90137 -9.5166 9.31055 -20.7383 9.31055 -32.749c0 -11.6885 -3.22852 -22.7627 -8.84082 -32.1113h-110.24c-5.55957 9.36035 -8.81738 20.3467 -8.87988 32c0 35.3223 28.6777 64 64 64z" />
    <glyph glyph-name="tachometer-alt-fastest-primary" unicode="&#xf626;" horiz-adv-x="576" 
d="M288 128c23.0391 -0.0380859 43.1914 -12.251 54.3701 -30.6104l133.68 22.2803c1.18066 0.178711 2.38965 0.271484 3.62012 0.271484c13.2461 0 24 -10.7539 24 -24c0 -11.7695 -8.53516 -21.5723 -19.7197 -23.6113l-133.95 -22.3301
c-1.41797 -6.35645 -3.79297 -12.4795 -6.90039 -18h-110.22c-5.55957 9.36035 -8.81738 20.3467 -8.87988 32c0 35.3223 28.6777 64 64 64z" />
    <glyph glyph-name="tachometer-alt-slow-primary" unicode="&#xf627;" horiz-adv-x="576" 
d="M343.12 32h-110.24c-5.6123 9.34863 -8.83984 20.29 -8.83984 31.9785c0 12.0107 3.4082 23.3652 9.30957 32.8818l-108.55 144.729c-3.00781 4.01074 -4.79004 8.99121 -4.79004 14.3848c0 13.25 10.7568 24.0068 24.0068 24.0068
c7.85547 0 14.8125 -3.74121 19.1934 -9.58105l108.56 -144.74c5.33984 1.45898 10.96 2.23828 16.7598 2.23828c35.0459 0 63.5 -28.4531 63.5 -63.5c0 -11.8057 -3.28711 -22.9238 -8.90918 -32.3984z" />
    <glyph glyph-name="tachometer-alt-slowest-primary" unicode="&#xf628;" horiz-adv-x="576" 
d="M72.3301 99.9502c1.89355 11.3604 11.7783 20.0322 23.6729 20.0322c1.36914 0 2.69043 -0.0917969 3.99707 -0.3125l133.68 -22.2803c11.3242 17.7695 31.2041 29.5664 53.8184 29.5664c35.1953 0 63.7695 -28.5752 63.7695 -63.7705
c0 -11.2695 -3.00879 -21.9941 -8.14746 -31.1855h-110.24c-3.10938 5.51953 -5.48535 11.6426 -6.89941 18l-133.931 22.3301c-11.3564 1.89648 -20.0244 11.7793 -20.0244 23.6719c0 1.35156 0.0888672 2.65625 0.304688 3.94824z" />
    <glyph glyph-name="tachometer-average-primary" unicode="&#xf629;" horiz-adv-x="576" 
d="M264 123.25v196.75c0 13.2461 10.7539 24 24 24s24 -10.7539 24 -24v-196.75c23.4424 -9.29688 40.0381 -32.1875 40.0381 -58.9229c0 -11.7881 -3.30176 -22.8701 -8.91797 -32.3271h-110.24c-5.61621 9.45703 -8.8418 20.4971 -8.8418 32.2842
c0 26.7363 16.5195 49.6689 39.9619 58.9658z" />
    <glyph glyph-name="tachometer-fast-primary" unicode="&#xf62a;" horiz-adv-x="576" 
d="M288 128c5.62012 -0.0722656 11.0645 -0.888672 16.2402 -2.33984l108.56 144.75c4.38086 5.83691 11.3584 9.61621 19.2119 9.61621c13.249 0 24.0059 -10.7568 24.0059 -24.0059c0 -5.39648 -1.80762 -10.4199 -4.81738 -14.4307l-108.55 -144.729
c5.90137 -9.5166 9.31055 -20.7383 9.31055 -32.749c0 -11.6885 -3.22852 -22.7627 -8.84082 -32.1113h-110.24c-5.55957 9.36035 -8.81738 20.3467 -8.87988 32c0 35.3223 28.6777 64 64 64z" />
    <glyph glyph-name="tachometer-fastest-primary" unicode="&#xf62b;" horiz-adv-x="576" 
d="M484 72.3301l-134 -22.3301c-1.41797 -6.35645 -3.79297 -12.4795 -6.90039 -18h-110.22c-5.55957 9.36035 -8.81738 20.3467 -8.87988 32v0.161133c0 35.2393 28.6104 63.8496 63.8496 63.8496c23.0986 0 43.3086 -12.2266 54.5205 -30.6211l133.68 22.2803
c1.18066 0.178711 2.38965 0.271484 3.62012 0.271484c13.2461 0 24 -10.7539 24 -24c0 -11.7695 -8.53516 -21.5723 -19.7197 -23.6113h0.0498047z" />
    <glyph glyph-name="tachometer-slow-primary" unicode="&#xf62c;" horiz-adv-x="576" 
d="M343.12 32h-110.24c-5.6123 9.34863 -8.83984 20.29 -8.83984 31.9785c0 12.0107 3.4082 23.3652 9.30957 32.8818l-108.55 144.729c-3.00781 4.01074 -4.79004 8.99121 -4.79004 14.3848c0 13.25 10.7568 24.0068 24.0068 24.0068
c7.85547 0 14.8125 -3.74121 19.1934 -9.58105l108.56 -144.74c5.33984 1.45898 10.96 2.23828 16.7598 2.23828c35.0459 0 63.5 -28.4531 63.5 -63.5c0 -11.8057 -3.28711 -22.9238 -8.90918 -32.3984z" />
    <glyph glyph-name="tachometer-slowest-primary" unicode="&#xf62d;" horiz-adv-x="576" 
d="M343.12 32h-110.24c-3.10938 5.51953 -5.48535 11.6426 -6.89941 18l-133.931 22.3301c-11.1846 2.03906 -19.6748 11.8408 -19.6748 23.6104c0 13.2461 10.7539 24 24 24c1.22949 0 2.39453 -0.0917969 3.5752 -0.270508l133.68 -22.2803
c11.2207 18.2666 31.3867 30.459 54.377 30.459c35.1953 0 63.7695 -28.5742 63.7695 -63.7695c0 -11.6357 -3.20312 -22.6836 -8.65625 -32.0791z" />
    <glyph glyph-name="teeth-primary" unicode="&#xf62e;" 
d="M544 448c52.9834 0 96 -43.0166 96 -96v-320c0 -52.9834 -43.0166 -96 -96 -96h-448c-52.9834 0 -96 43.0166 -96 96v320c0 52.9834 43.0166 96 96 96h448zM160 80v64c0 8.83105 -7.16895 16 -16 16h-64c-8.83105 0 -16 -7.16895 -16 -16v-64
c0 -26.4922 21.5078 -48 48 -48s48 21.5078 48 48zM160 208v64c0 26.4922 -21.5078 48 -48 48s-48 -21.5078 -48 -48v-64c0 -8.83105 7.16895 -16 16 -16h64c8.83105 0 16 7.16895 16 16zM304 88v56c0 8.83105 -7.16895 16 -16 16h-80c-8.83105 0 -16 -7.16895 -16 -16v-56
c0 -30.9072 25.0928 -56 56 -56s56 25.0928 56 56zM304 208v88c0 30.9072 -25.0928 56 -56 56s-56 -25.0928 -56 -56v-88c0 -8.83105 7.16895 -16 16 -16h80c8.83105 0 16 7.16895 16 16zM448 88v56c0 8.83105 -7.16895 16 -16 16h-80c-8.83105 0 -16 -7.16895 -16 -16v-56
c0 -30.9072 25.0928 -56 56 -56s56 25.0928 56 56zM448 208v88c0 30.9072 -25.0928 56 -56 56s-56 -25.0928 -56 -56v-88c0 -8.83105 7.16895 -16 16 -16h80c8.83105 0 16 7.16895 16 16zM576 80v64c0 8.83105 -7.16895 16 -16 16h-64c-8.83105 0 -16 -7.16895 -16 -16v-64
c0 -26.4922 21.5078 -48 48 -48s48 21.5078 48 48zM576 208v64c0 26.4922 -21.5078 48 -48 48s-48 -21.5078 -48 -48v-64c0 -8.83105 7.16895 -16 16 -16h64c8.83105 0 16 7.16895 16 16z" />
    <glyph glyph-name="teeth-open-primary" unicode="&#xf62f;" 
d="M576 128c35.3223 0 64 -28.6777 64 -64v-32c0 -52.9834 -43.0166 -96 -96 -96h-448c-52.9834 0 -96 43.0166 -96 96v32c0 35.3223 28.6777 64 64 64h512zM160 48v32c0 8.83105 -7.16895 16 -16 16h-64c-8.83105 0 -16 -7.16895 -16 -16v-32
c0 -26.4922 21.5078 -48 48 -48s48 21.5078 48 48zM304 56v24c0 8.83105 -7.16895 16 -16 16h-80c-8.83105 0 -16 -7.16895 -16 -16v-24c0 -30.9072 25.0928 -56 56 -56s56 25.0928 56 56zM448 56v24c0 8.83105 -7.16895 16 -16 16h-80c-8.83105 0 -16 -7.16895 -16 -16v-24
c0 -30.9072 25.0928 -56 56 -56s56 25.0928 56 56zM576 48v32c0 8.83105 -7.16895 16 -16 16h-64c-8.83105 0 -16 -7.16895 -16 -16v-32c0 -26.4922 21.5078 -48 48 -48s48 21.5078 48 48zM544 448c52.9834 0 96 -43.0166 96 -96v-64c0 -35.3223 -28.6777 -64 -64 -64h-512
c-35.3223 0 -64 28.6777 -64 64v64c0 52.9834 43.0166 96 96 96h448zM160 272v32c0 26.4922 -21.5078 48 -48 48s-48 -21.5078 -48 -48v-32c0 -8.83105 7.16895 -16 16 -16h64c8.83105 0 16 7.16895 16 16zM304 272v56c0 30.9072 -25.0928 56 -56 56s-56 -25.0928 -56 -56
v-56c0 -8.83105 7.16895 -16 16 -16h80c8.83105 0 16 7.16895 16 16zM448 272v56c0 30.9072 -25.0928 56 -56 56s-56 -25.0928 -56 -56v-56c0 -8.83105 7.16895 -16 16 -16h80c8.83105 0 16 7.16895 16 16zM576 272v32c0 26.4922 -21.5078 48 -48 48s-48 -21.5078 -48 -48
v-32c0 -8.83105 7.16895 -16 16 -16h64c8.83105 0 16 7.16895 16 16z" />
    <glyph glyph-name="tire-pressure-warning-primary" unicode="&#xf633;" horiz-adv-x="512" 
d="M278.32 352c8.81152 -0.0224609 15.959 -7.16699 15.959 -15.9834c0 -0.541992 -0.0263672 -1.07812 -0.0791016 -1.60645l-12.7998 -128c-0.806641 -8.07715 -7.63184 -14.4102 -15.9199 -14.4102h-19c-8.28906 0 -15.1143 6.33301 -15.9209 14.4102l-12.7998 128
c-0.0527344 0.52832 -0.0791016 1.04785 -0.0791016 1.58984c0 8.83008 7.16895 16 15.999 16h44.6406zM256 160c17.6611 0 32 -14.3389 32 -32s-14.3389 -32 -32 -32s-32 14.3389 -32 32s14.3389 32 32 32z" />
    <glyph glyph-name="toothbrush-primary" unicode="&#xf635;" 
d="M0 320c0 35.3223 28.6777 64 64 64h261.49c33.3994 0 50.1299 40.3799 26.5098 64c70.6455 0 128 -57.3545 128 -128c0 -35.3223 -28.6777 -64 -64 -64h-352c-35.3223 0 -64 28.6777 -64 64z" />
    <glyph glyph-name="traffic-cone-primary" unicode="&#xf636;" horiz-adv-x="512" 
d="M289.73 437.92l46.9199 -117.92h-161.301l46.9199 117.92c2.35352 5.9082 8.12109 10.0801 14.8652 10.0801h0.00488281h37.7207l-0.000976562 0.00878906c6.74316 0 12.5176 -4.18066 14.8711 -10.0889zM362.12 256l38.2002 -96h-288.65l38.21 96h212.24zM496 0
c8.83105 0 16 -7.16895 16 -16v-32c0 -8.83105 -7.16895 -16 -16 -16h-480c-8.83105 0 -16 7.16895 -16 16v32c0 8.83105 7.16895 16 16 16h32l38.21 96h339.58l38.21 -96h32z" />
    <glyph glyph-name="traffic-light-primary" unicode="&#xf637;" horiz-adv-x="384" 
d="M384 256c0 -41.7402 -26.7998 -76.9004 -64 -90.1201v-37.8799h64c0 -42.7803 -28.1904 -78.5996 -66.7998 -91v0.150391c-12.3545 -57.7705 -63.7324 -101.146 -125.167 -101.146c-61.4355 0 -112.819 43.375 -125.173 101.146v-0.150391
c-38.6699 12.3896 -66.8604 48.21 -66.8604 91h64v37.8799c-37.2002 13.2197 -64 48.3799 -64 90.1201h64v37.8799c-37.2002 13.2197 -64 48.3799 -64 90.1201h64v32c0 17.6611 14.3389 32 32 32h192c17.6611 0 32 -14.3389 32 -32v-32h64
c0 -41.7402 -26.7998 -76.9004 -64 -90.1201v-37.8799h64zM192 32c26.4922 0 48 21.5078 48 48s-21.5078 48 -48 48s-48 -21.5078 -48 -48s21.5078 -48 48 -48zM192 160c26.4922 0 48 21.5078 48 48s-21.5078 48 -48 48s-48 -21.5078 -48 -48s21.5078 -48 48 -48zM192 288
c26.4922 0 48 21.5078 48 48s-21.5078 48 -48 48s-48 -21.5078 -48 -48s21.5078 -48 48 -48z" />
    <glyph glyph-name="traffic-light-go-primary" unicode="&#xf638;" horiz-adv-x="384" 
d="M384 256c0 -41.7402 -26.7998 -76.9004 -64 -90.1201v-37.8799h64c0 -42.7803 -28.1904 -78.5996 -66.7998 -91v0.150391c-12.3545 -57.7705 -63.7324 -101.146 -125.167 -101.146c-61.4355 0 -112.819 43.375 -125.173 101.146v-0.150391
c-38.6699 12.3896 -66.8604 48.21 -66.8604 91h64v37.8799c-37.2002 13.2197 -64 48.3799 -64 90.1201h64v37.8799c-37.2002 13.2197 -64 48.3799 -64 90.1201h64v32c0 17.6611 14.3389 32 32 32h192c17.6611 0 32 -14.3389 32 -32v-32h64
c0 -41.7402 -26.7998 -76.9004 -64 -90.1201v-37.8799h64zM192 32c26.4922 0 48 21.5078 48 48s-21.5078 48 -48 48s-48 -21.5078 -48 -48s21.5078 -48 48 -48zM192 160c26.4922 0 48 21.5078 48 48s-21.5078 48 -48 48s-48 -21.5078 -48 -48s21.5078 -48 48 -48zM192 288
c26.4922 0 48 21.5078 48 48s-21.5078 48 -48 48s-48 -21.5078 -48 -48s21.5078 -48 48 -48z" />
    <glyph glyph-name="traffic-light-slow-primary" unicode="&#xf639;" horiz-adv-x="384" 
d="M384 256c0 -41.7402 -26.7998 -76.9004 -64 -90.1201v-37.8799h64c0 -42.7803 -28.1904 -78.5996 -66.7998 -91v0.150391c-12.3545 -57.7705 -63.7324 -101.146 -125.167 -101.146c-61.4355 0 -112.819 43.375 -125.173 101.146v-0.150391
c-38.6699 12.3896 -66.8604 48.21 -66.8604 91h64v37.8799c-37.2002 13.2197 -64 48.3799 -64 90.1201h64v37.8799c-37.2002 13.2197 -64 48.3799 -64 90.1201h64v32c0 17.6611 14.3389 32 32 32h192c17.6611 0 32 -14.3389 32 -32v-32h64
c0 -41.7402 -26.7998 -76.9004 -64 -90.1201v-37.8799h64zM192 32c26.4922 0 48 21.5078 48 48s-21.5078 48 -48 48s-48 -21.5078 -48 -48s21.5078 -48 48 -48zM192 160c26.4922 0 48 21.5078 48 48s-21.5078 48 -48 48s-48 -21.5078 -48 -48s21.5078 -48 48 -48zM192 288
c26.4922 0 48 21.5078 48 48s-21.5078 48 -48 48s-48 -21.5078 -48 -48s21.5078 -48 48 -48z" />
    <glyph glyph-name="traffic-light-stop-primary" unicode="&#xf63a;" horiz-adv-x="384" 
d="M384 256c0 -41.7402 -26.7998 -76.9004 -64 -90.1201v-37.8799h64c0 -42.7803 -28.1904 -78.5996 -66.7998 -91v0.150391c-12.3545 -57.7705 -63.7324 -101.146 -125.167 -101.146c-61.4355 0 -112.819 43.375 -125.173 101.146v-0.150391
c-38.6699 12.3896 -66.8604 48.21 -66.8604 91h64v37.8799c-37.2002 13.2197 -64 48.3799 -64 90.1201h64v37.8799c-37.2002 13.2197 -64 48.3799 -64 90.1201h64v32c0 17.6611 14.3389 32 32 32h192c17.6611 0 32 -14.3389 32 -32v-32h64
c0 -41.7402 -26.7998 -76.9004 -64 -90.1201v-37.8799h64zM192 32c26.4922 0 48 21.5078 48 48s-21.5078 48 -48 48s-48 -21.5078 -48 -48s21.5078 -48 48 -48zM192 160c26.4922 0 48 21.5078 48 48s-21.5078 48 -48 48s-48 -21.5078 -48 -48s21.5078 -48 48 -48zM192 288
c26.4922 0 48 21.5078 48 48s-21.5078 48 -48 48s-48 -21.5078 -48 -48s21.5078 -48 48 -48z" />
    <glyph glyph-name="truck-monster-primary" unicode="&#xf63b;" 
d="M624 224c8.83105 0 16 -7.16895 16 -16v-32c0 -8.83105 -7.16895 -16 -16 -16h-16.71c-29.21 38.6504 -75.0996 64 -127.28 64c-52.1797 0 -98.0693 -25.3496 -127.279 -64h-65.4502c-29.21 38.6504 -75.1006 64 -127.28 64s-98.0703 -25.3496 -127.28 -64h-16.7197
c-8.83105 0 -16 7.16895 -16 16v32c0 8.83105 7.16895 16 16 16h16v80c0 8.83105 7.16895 16 16 16h176v96c0 17.6611 14.3389 32 32 32h113.22c0.0136719 0 0.00292969 0.0449219 0.0166016 0.0449219c20.2139 0 38.251 -9.3916 49.9834 -24.0449l83.1807 -104h73.5996
c17.6611 0 32 -14.3389 32 -32v-64h16zM288 320h132.44l-51.2002 64h-81.2402v-64z" />
    <glyph glyph-name="truck-pickup-primary" unicode="&#xf63c;" 
d="M624 160c8.83105 0 16 -7.16895 16 -16v-32c0 -8.83105 -7.16895 -16 -16 -16h-46.7998c-16.5342 46.5811 -60.9424 79.9756 -113.163 79.9756s-96.7031 -33.3945 -113.237 -79.9756h-61.5996c-16.5342 46.5811 -60.9424 79.9756 -113.163 79.9756
s-96.7031 -33.3945 -113.237 -79.9756h-46.7998c-8.83105 0 -16 7.16895 -16 16v32c0 8.83105 7.16895 16 16 16h16v64c0 17.6611 14.3389 32 32 32h160v128c0 17.6611 14.3389 32 32 32h113.22c0.0136719 0 0.00292969 0.0449219 0.0166016 0.0449219
c20.2139 0 38.251 -9.3916 49.9834 -24.0449l108.78 -136h48c17.6611 0 32 -14.3389 32 -32v-64h16zM288 256h158l-76.7598 96h-81.2402v-96z" />
    <glyph glyph-name="users-class-primary" unicode="&#xf63d;" 
d="M576 64c35.3223 0 64 -28.6777 64 -64v-32c0 -17.6611 -14.3389 -32 -32 -32h-128c-17.6611 0 -32 14.3389 -32 32v32c0 35.3223 28.6777 64 64 64h64zM544 96c-35.3223 0 -64 28.6777 -64 64s28.6777 64 64 64s64 -28.6777 64 -64s-28.6777 -64 -64 -64zM352 64
c35.3223 0 64 -28.6777 64 -64v-32c0 -17.6611 -14.3389 -32 -32 -32h-128c-17.6611 0 -32 14.3389 -32 32v32c0 35.3223 28.6777 64 64 64h64zM128 64c35.3223 0 64 -28.6777 64 -64v-32c0 -17.6611 -14.3389 -32 -32 -32h-128c-17.6611 0 -32 14.3389 -32 32v32
c0 35.3223 28.6777 64 64 64h64zM320 96c-35.3223 0 -64 28.6777 -64 64s28.6777 64 64 64s64 -28.6777 64 -64s-28.6777 -64 -64 -64zM96 96c-35.3223 0 -64 28.6777 -64 64s28.6777 64 64 64s64 -28.6777 64 -64s-28.6777 -64 -64 -64z" />
    <glyph glyph-name="road-secondary" unicode="&#x10f018;" horiz-adv-x="576" 
d="M267.74 256c-0.0126953 0 -0.0244141 -0.0126953 -0.0371094 -0.0126953c-6.62305 0 -12 5.37695 -12 12c0 0.429688 0.0224609 0.854492 0.0664062 1.27246l4.59082 43.5801c0.423828 4.01758 3.82617 7.16016 7.95508 7.16016h0.0449219h39.25
c0.0146484 0 0.0292969 -0.0078125 0.0439453 -0.0078125c4.12891 0 7.53125 -3.13477 7.95605 -7.15234l4.59961 -43.5801c0.0439453 -0.417969 0.0664062 -0.830078 0.0664062 -1.25977c0 -6.62207 -5.375 -11.998 -11.9961 -12h-40.54zM273.42 352
c-0.000976562 0 -0.00292969 -0.0078125 -0.00488281 -0.0078125c-4.41504 0 -8 3.58398 -8 8c0 0.286133 0.015625 0.569336 0.0449219 0.847656l2.4502 23.1602h40.1797l2.49023 -23.1602c0.0292969 -0.27832 0.0449219 -0.553711 0.0449219 -0.839844
c0 -4.41504 -3.58496 -8 -8 -8h-0.0449219h-29.1602zM338.31 97.6797l10.3105 -97.6797h-121.24l10.3105 97.6797c0.847656 8.03418 7.65234 14.3193 15.9092 14.3203h68.8008c8.25684 -0.000976562 15.0615 -6.28613 15.9092 -14.3203zM260.31 144
c-8.8291 0.000976562 -15.959 7.15332 -15.959 15.9834c0 0.573242 0.0302734 1.13867 0.0898438 1.69629l5.06934 48c0.848633 8.03418 7.65332 14.3193 15.9102 14.3203h45.1504c8.23828 -0.0214844 15.0225 -6.2998 15.8701 -14.3203l5.06934 -48
c0.0595703 -0.557617 0.0888672 -1.10645 0.0888672 -1.67969c0 -8.83008 -7.16895 -15.999 -15.999 -16h-55.29z" />
    <glyph glyph-name="tachometer-secondary" unicode="&#x10f0e4;" horiz-adv-x="576" 
d="M288 416c159.06 0 288 -128.94 288 -288c0 -0.130859 -0.181641 -0.561523 -0.181641 -0.691406c0 -52.5234 -14.165 -101.765 -38.8779 -144.108c-5.61035 -9.62012 -16.3008 -15.2002 -27.4404 -15.2002h-443c-11.1396 0 -21.8301 5.58008 -27.4404 15.2002
c-24.7129 42.3438 -39.0596 91.8848 -39.0596 144.408v0.391602c0 159.06 128.94 288 288 288zM390.77 296.41c0.743164 2.31348 1.13867 4.77832 1.13867 7.33887c0 13.2461 -10.7549 24 -24 24c-10.501 0 -19.4355 -6.75879 -22.6885 -16.1592l-61.3398 -184
c-33.3291 -1.82227 -59.8408 -29.5322 -59.8408 -63.3135c0 -11.7842 3.22559 -22.8213 8.84082 -32.2764h110.24c5.61426 9.40234 8.91895 20.4404 8.91895 32.1768c0 19.374 -8.79102 36.71 -22.5986 48.2334z" />
    <glyph glyph-name="laptop-secondary" unicode="&#x10f109;" 
d="M528 448c26.4561 -0.0771484 47.9229 -21.5439 48 -48v-336h-512v336c0.0771484 26.4561 21.5439 47.9229 48 48h416zM512 128v256h-384v-256h384z" />
    <glyph glyph-name="car-secondary" unicode="&#x10f1b9;" horiz-adv-x="512" 
d="M319.5 320c20.2031 0 37.4932 -12.4814 44.5703 -30.1699l19.9297 -49.8301h-256l19.9297 49.8301c7.07715 17.6885 24.3672 30.1699 44.5703 30.1699h127zM80 64h48v-32c0 -17.6611 -14.3389 -32 -32 -32h-32c-17.6611 0 -32 14.3389 -32 32v48
c0.000976562 1.78125 0.147461 3.49805 0.429688 5.2002c11.6885 -13.0273 28.6396 -21.2002 47.502 -21.2002h0.0683594zM432 64c0.0224609 0 0.0361328 -0.0273438 0.0585938 -0.0273438c18.8613 0 35.8232 8.2002 47.5117 21.2275
c0.282227 -1.70215 0.428711 -3.41895 0.429688 -5.2002v-48c0 -17.6611 -14.3389 -32 -32 -32h-32c-17.6611 0 -32 14.3389 -32 32v32h48z" />
    <glyph glyph-name="binoculars-secondary" unicode="&#x10f1e5;" horiz-adv-x="512" 
d="M400 416c8.83105 0 16 -7.16895 16 -16v-48h-96v48c0 8.83105 7.16895 16 16 16h64zM176 416c8.83105 0 16 -7.16895 16 -16v-48h-96v48c0 8.83105 7.16895 16 16 16h64zM224 160v160h64v-160h-64z" />
    <glyph glyph-name="bell-slash-secondary" unicode="&#x10f1f6;" 
d="M370 32h-241.9c-19.1191 0 -32 15.5996 -32.0996 32v0.176758c0 8.34082 3.27539 15.9277 8.61035 21.5332c16.21 17.4199 44 42.79 52.6201 110.75zM543.64 59.5898l-353.56 273.24c23.0098 31.4395 57.5898 53.96 97.9004 62.3301v20.8398c0 17.6611 14.3379 32 32 32
c17.6611 0 32 -14.3389 32 -32v-20.8398c73.46 -15.2598 127.939 -77.46 127.939 -155.16c0 -102.29 36.1504 -133.53 55.4697 -154.29c5.33496 -5.60352 8.61133 -13.1895 8.61133 -21.5293c0 -0.0605469 -0.000976562 -0.120117 -0.000976562 -0.180664
c-0.0205078 -1.50488 -0.141602 -2.96094 -0.360352 -4.41016zM320 -64c-35.3223 0 -64 28.6777 -64 64h128c0 -35.3223 -28.6777 -64 -64 -64z" />
    <glyph glyph-name="street-view-secondary" unicode="&#x10f21d;" horiz-adv-x="512" 
d="M512 32c0 -53 -114.62 -96 -256 -96s-256 43 -256 96c0 37.9502 58.8701 70.6602 144.1 86.2402c4.52539 -5.4082 9.84082 -9.97852 15.9004 -13.6504v-22.9395c-66.5195 -9.35059 -112 -28.0508 -112 -49.6504c0 -30.9297 93.1201 -56 208 -56s208 25.0703 208 56
c0 21.5996 -45.4805 40.3096 -112 49.6504v22.9395c6.05957 3.67188 11.375 8.24219 15.9004 13.6504c85.2295 -15.5801 144.1 -48.29 144.1 -86.2402z" />
    <glyph glyph-name="map-pin-secondary" unicode="&#x10f276;" horiz-adv-x="288" 
d="M144 128c10.9766 0.0410156 21.583 1.08984 32 3.05957v-156.689l-22 -33c-2.14941 -3.24121 -5.83105 -5.37891 -10.0068 -5.37891c-4.17676 0 -7.84375 2.1377 -9.99316 5.37891l-22 33v156.689c10.417 -1.96973 21.0234 -3.01855 32 -3.05957z" />
    <glyph glyph-name="map-signs-secondary" unicode="&#x10f277;" horiz-adv-x="512" 
d="M224 -48v112h64v-112c0 -0.0166016 0.00195312 -0.0351562 0.00195312 -0.0517578c0 -4.39551 -1.78613 -8.37793 -4.67188 -11.2578c-1.43066 -1.4248 -3.11816 -2.57227 -5 -3.38086l-0.0996094 -0.0498047l-0.520508 -0.189453
c-1.76953 -0.68457 -3.7002 -1.06738 -5.70996 -1.07031h-32c-8.83105 0 -16 7.16895 -16 16zM272 448c8.83105 0 16 -7.16895 16 -16v-16h-64v16c0 8.83105 7.16895 16 16 16h32zM224 224v32h64v-32h-64z" />
    <glyph glyph-name="tachometer-alt-secondary" unicode="&#x10f3fd;" horiz-adv-x="576" 
d="M288 416c159.06 0 288 -128.94 288 -288c0 -0.130859 -0.181641 -0.561523 -0.181641 -0.691406c0 -52.5234 -14.165 -101.765 -38.8779 -144.108c-5.61035 -9.62012 -16.3008 -15.2002 -27.4404 -15.2002h-443c-11.1396 0 -21.8301 5.58008 -27.4404 15.2002
c-24.7129 42.3438 -39.0596 91.8848 -39.0596 144.408v0.391602c0 159.06 128.94 288 288 288zM288 352c-17.6611 0 -31.9902 -14.3389 -31.9902 -32s14.3389 -32 32 -32c6.64062 0 12.5098 2.50977 17.6406 6l9.21973 27.6797
c0.80957 2.44043 2.33984 4.41016 3.4502 6.66992c-3.74023 13.5205 -15.6104 23.6504 -30.3203 23.6504zM96 64c17.6611 0 32 14.3389 32 32s-14.3389 32 -32 32s-32 -14.3389 -32 -32s14.3389 -32 32 -32zM144 224c17.6611 0 32 14.3389 32 32s-14.3389 32 -32 32
s-32 -14.3389 -32 -32s14.3389 -32 32 -32zM390.77 296.41c0.743164 2.31348 1.13867 4.77832 1.13867 7.33887c0 13.2461 -10.7549 24 -24 24c-10.501 0 -19.4355 -6.75879 -22.6885 -16.1592l-61.3398 -184c-33.3291 -1.82227 -59.8408 -29.5322 -59.8408 -63.3135
c0 -11.7842 3.22559 -22.8213 8.84082 -32.2764h110.24c5.61426 9.40234 8.91895 20.4404 8.91895 32.1768c0 19.374 -8.79102 36.71 -22.5986 48.2334zM405.43 239.21c5.68066 -8.94043 15.1904 -15.21 26.5703 -15.21c17.6611 0 32 14.3389 32 32s-14.3389 32 -32 32
c-3.86719 -0.0849609 -7.59473 -0.880859 -11 -2.24023zM480 64c17.6611 0 32 14.3389 32 32s-14.3389 32 -32 32s-32 -14.3389 -32 -32s14.3389 -32 32 -32z" />
    <glyph glyph-name="route-secondary" unicode="&#x10f4d7;" horiz-adv-x="512" 
d="M512 32c-0.0830078 -52.9453 -43.0547 -95.917 -96 -96h-277.8c17.0312 20.4639 32.6895 41.6406 47.2998 64h230.5c17.6611 0 32 14.3389 32 32s-14.3389 32 -32 32h-96c-52.9834 0 -96 43.0166 -96 96s43.0166 96 96 96h45.2402
c15.9238 -22.332 32.6807 -43.4541 50.7598 -64h-96c-17.6611 0 -32 -14.3389 -32 -32s14.3389 -32 32 -32h96c52.9453 -0.0830078 95.917 -43.0547 96 -96z" />
    <glyph glyph-name="book-open-secondary" unicode="&#x10f518;" horiz-adv-x="576" 
d="M576 385.25v-337.84c0 -16.2305 -13.1299 -29.7705 -30 -30.6602c-49.4697 -2.59961 -149.52 -12.0996 -218.7 -46.9199c-10.6494 -5.36035 -23.2803 1.93945 -23.2803 13.4902v363.87v0.109375c0 5.51758 2.89844 10.3496 7.27051 13.0605
c67.2402 41.1592 176.16 52.4795 231 55.5898c18.3496 1.0498 33.71 -12.9502 33.71 -30.7002z" />
    <glyph glyph-name="air-freshener-secondary" unicode="&#x10f5d0;" horiz-adv-x="384" 
d="M304 16h-224v-32h224v32zM336 64c8.83105 0 16 -7.16895 16 -16v-96c0 -8.83105 -7.16895 -16 -16 -16h-288c-8.83105 0 -16 7.16895 -16 16v96c0 8.83105 7.16895 16 16 16h288z" />
    <glyph glyph-name="apple-alt-secondary" unicode="&#x10f5d1;" horiz-adv-x="448" 
d="M295.92 360c-9.33301 -8.66699 -21.668 -15.002 -37.001 -19.002c-10.9756 -3.32324 -22.248 -4.98438 -33.8174 -4.98438c-0.120117 0 -0.310547 -0.00292969 -0.572266 -0.00878906s-0.464844 -0.0078125 -0.609375 -0.00683594l-15 1
c-0.670898 5.33691 -1.00586 10.7148 -1.00586 16.1328c0 5.24121 0.334961 10.5303 1.00586 15.8672c2.66699 24 10.334 42.333 23.001 55c9.33301 8.66699 21.666 15 36.999 19c10.9756 3.32324 22.248 4.98438 33.8174 4.98438
c0.120117 0 0.311523 0.00292969 0.573242 0.00878906s0.464844 0.0078125 0.609375 0.00683594l15 -1l1 -15c0.00292969 -0.311523 0.00488281 -0.685547 0.00488281 -1.12305c0 -11.5332 -1.66797 -22.8252 -5.00488 -33.876c-4 -15.333 -10.333 -27.666 -19 -36.999z" />
    <glyph glyph-name="backpack-secondary" unicode="&#x10f5d4;" horiz-adv-x="448" 
d="M320 128c17.6611 0 32 -14.3389 32 -32v-32h-256v32c0 17.6611 14.3389 32 32 32h192zM136 240c-4.41504 0 -8 3.58496 -8 8v16c0 4.41504 3.58496 8 8 8h176c4.41504 0 8 -3.58496 8 -8v-16c0 -4.41504 -3.58496 -8 -8 -8h-176z" />
    <glyph glyph-name="bell-school-secondary" unicode="&#x10f5d5;" horiz-adv-x="512" 
d="M464 128c0.0507812 0 0.145508 0.0292969 0.196289 0.0292969c26.4141 0 47.8594 -21.4463 47.8594 -47.8604c0 -18.5635 -10.5908 -34.6729 -26.0557 -42.6094c-8.53125 -39.667 -43.8105 -69.5068 -86 -69.5596h-48v48h48
c16.5684 0.0166016 30.7783 10.083 36.8604 24.4502c-12.5879 8.65625 -20.7998 23.1328 -20.7998 39.5498c0 26.4717 21.4756 47.9678 47.9395 48zM208 288c26.4922 0 48 -21.5078 48 -48s-21.5078 -48 -48 -48s-48 21.5078 -48 48s21.5078 48 48 48z" />
    <glyph glyph-name="bell-school-slash-secondary" unicode="&#x10f5d6;" 
d="M486.36 103.87c8.27051 14.4707 23.8564 24.2324 41.7031 24.2324c26.4922 0 48 -21.5078 48 -48c0 -13.4414 -5.55762 -25.6553 -14.4736 -34.3721zM272 288c26.4893 -0.00292969 47.9951 -21.4629 47.9951 -47.9521c0 -2.44238 -0.182617 -4.84277 -0.535156 -7.1875
l-66.3301 51.2598c5.77148 2.48242 12.1641 3.87988 18.8418 3.87988h0.0283203zM350.19 47.3301c-24.0977 -9.82227 -50.5811 -15.3262 -78.1904 -15.3301c-114.88 0 -208 93.1201 -208 208c0.0839844 9.21289 0.758789 18.1074 2 27zM272 0
c38.1562 0.103516 74.4463 9.40234 106.34 25.5801l37.6602 -29.1104v-28.4697c0 -17.6611 -14.3389 -32 -32 -32h-224c-17.6611 0 -32 14.3389 -32 32v80.46c39.9805 -30.3252 90.002 -48.4424 144 -48.46zM225.79 305.26l-103.01 79.6104
c37.7031 38.9492 90.5322 63.1299 148.97 63.1299h0.25c114.88 0 208 -93.1201 208 -208c0 -0.0791016 -0.130859 -0.375 -0.130859 -0.454102c0 -39.3359 -10.9961 -76.124 -30.0791 -107.456l-103 79.6299c3.29492 8.75586 5.05078 18.2314 5.05078 28.1328
c0 44.1533 -35.8467 80 -80 80c-17.1387 0 -33.0254 -5.40137 -46.0508 -14.5928z" />
    <glyph glyph-name="bone-secondary" unicode="&#x10f5d7;" 
d="M598.88 203.44c-4.19727 -2.09863 -7.08301 -6.43945 -7.08301 -11.4482s2.88574 -9.33398 7.08301 -11.4326c24.4121 -12.2041 41.1924 -37.4443 41.1924 -66.5723c0 -0.0107422 -0.0722656 0.0234375 -0.0722656 0.0126953v-7.63965v-0.154297
c0 -41.0518 -33.3281 -74.3799 -74.3799 -74.3799c-32.9004 0 -60.8223 21.3994 -70.6201 51.0342c-6.53027 19.5996 -10.7305 45.1396 -38.1104 45.1396h-273.83c-26.5098 0 -30.4297 -22.1104 -38.1094 -45.1396c-9.84277 -29.5566 -37.7441 -50.8926 -70.5898 -50.8926
c-41.0508 0 -74.3799 33.3291 -74.3799 74.3799c0 0.0107422 0.0195312 0.0322266 0.0195312 0.0419922v7.61035c0.00195312 29.1279 16.709 54.3232 41.1201 66.5303c4.19727 2.09863 7.08301 6.43848 7.08301 11.4473s-2.88574 9.33398 -7.08301 11.4326
c-24.4131 12.207 -41.1924 37.4492 -41.1924 66.5791c0 0.0185547 0.0722656 -0.0078125 0.0722656 0.0107422v7.63965v0.18457c0 41.0518 33.3281 74.3809 74.3799 74.3809c32.9004 0 60.8223 -21.4014 70.6201 -51.0352
c6.53027 -19.5996 10.7305 -45.1396 38.1104 -45.1396h273.819c26.5107 0 30.4307 22.1094 38.1104 45.1396c9.81641 29.6074 37.7451 50.9902 70.6289 50.9902c41.0566 0 74.3896 -33.333 74.3896 -74.3896c0 -0.0410156 -0.0185547 -0.0898438 -0.0185547 -0.130859
v-7.63965c-0.00195312 -29.1279 -16.709 -54.3232 -41.1201 -66.5303z" />
    <glyph glyph-name="bone-break-secondary" unicode="&#x10f5d8;" 
d="M598.88 276.56c24.4121 -12.2041 41.1924 -37.4443 41.1924 -66.5723c0 -0.0107422 -0.0722656 0.0234375 -0.0722656 0.0126953v-7.63965c0 -41.0518 -33.3291 -74.3799 -74.3799 -74.3799c-32.834 0 -60.709 21.3086 -70.5605 50.8496l-7.75 23.2598
c-4.22168 12.709 -16.1963 21.8848 -30.3096 21.9102h-105l32 64l-32 64h105c14.127 0 26.123 9.16895 30.3604 21.8799l7.75 23.2598c9.89453 29.4648 37.75 50.7148 70.5293 50.7148c41.001 0 74.2783 -33.2627 74.3604 -74.2441v-7.61035
c-0.00195312 -29.1279 -16.709 -54.3232 -41.1201 -66.5303c-4.21387 -2.09277 -7.11328 -6.44141 -7.11328 -11.4619s2.89941 -9.35449 7.11328 -11.4482z" />
    <glyph glyph-name="book-alt-secondary" unicode="&#x10f5d9;" horiz-adv-x="448" 
d="M96 0c-19.2002 0 -32 12.7998 -32 32s16 32 32 32h319.33c-1.92969 -16.2402 -1.75977 -48.3799 0.530273 -64h-319.86z" />
    <glyph glyph-name="book-reader-secondary" unicode="&#x10f5da;" horiz-adv-x="512" 
d="M256 256c-52.9834 0 -96 43.0166 -96 96s43.0166 96 96 96s96 -43.0166 96 -96s-43.0166 -96 -96 -96z" />
    <glyph glyph-name="bus-school-secondary" unicode="&#x10f5dd;" horiz-adv-x="512" 
d="M64 -32v32h96v-32c0 -17.6611 -14.3389 -32 -32 -32h-32c-17.6611 0 -32 14.3389 -32 32zM352 0h96v-32c0 -17.6611 -14.3389 -32 -32 -32h-32c-17.6611 0 -32 14.3389 -32 32v32zM112 288c0 17.6611 14.3389 32 32 32h96v-128h-96c-17.6611 0 -32 14.3389 -32 32v64z
M400 224c0 -17.6611 -14.3389 -32 -32 -32h-96v128h96c17.6611 0 32 -14.3389 32 -32v-64z" />
    <glyph glyph-name="car-battery-secondary" unicode="&#x10f5df;" horiz-adv-x="512" 
d="M176 384c8.83105 0 16 -7.16895 16 -16v-48h-128v48c0 8.83105 7.16895 16 16 16h96zM432 384c8.83105 0 16 -7.16895 16 -16v-48h-128v48c0 8.83105 7.16895 16 16 16h96z" />
    <glyph glyph-name="car-bump-secondary" unicode="&#x10f5e0;" horiz-adv-x="576" 
d="M329.76 297.51l-216.3 -94.2793l-27.9297 -12.2305l-2 55.1396c-0.0185547 0.547852 -0.0273438 1.09766 -0.0273438 1.64941c0 20.2998 12.2676 37.6992 29.8174 45.2412l65.1992 28.4199l56 24.3896c6.19238 2.70117 13.0273 4.19922 20.21 4.19922
c13.5713 0 25.9541 -5.32422 35.0508 -14.0293zM159.8 25.5996l13.4502 -30.0801c1.81348 -4.06348 2.8623 -8.5752 2.8623 -13.3096c0 -13.4922 -8.18848 -25.0859 -19.8623 -30.0801l-30.5303 -13.3096c-4.11816 -1.80469 -8.6748 -2.85156 -13.4561 -2.85156
c-13.5557 0 -25.2461 8.05273 -30.5439 19.6309l-20.2598 45.0801c-0.717773 1.61426 -1.32422 3.33398 -1.78027 5.07031c8.34375 -3.7002 17.6787 -5.75684 27.3867 -5.75684c9.57715 0 18.6895 2.00098 26.9434 5.60645zM486.28 191.72
c0.988281 -1.49023 1.86133 -3.07227 2.59961 -4.71973l20.2002 -45.0801c1.81152 -4.0625 2.8584 -8.57227 2.8584 -13.3047c0 -13.4922 -8.18652 -25.0879 -19.8584 -30.085l-30.5303 -13.2998c-4.11816 -1.80371 -8.6748 -2.84961 -13.4551 -2.84961
c-13.5527 0 -25.2412 8.04688 -30.5449 19.6191l-13.5498 30l45.8398 20c17.1592 7.40332 30.4922 21.8457 36.4404 39.7197z" />
    <glyph glyph-name="car-crash-secondary" unicode="&#x10f5e1;" 
d="M545.44 185.39l-247.931 63.75l31.71 43.3008c8.7373 11.9258 22.8438 19.6758 38.7461 19.6758c4.13477 0 8.10547 -0.571289 11.9346 -1.55664l123 -31.6191c18.7607 -4.81934 33.123 -20.751 35.6592 -40.3203zM211.34 294.92
c-33.0049 -8.8418 -59.0693 -34.7842 -68.0801 -67.7197l-12.4199 -46.3701c-1.96484 -7.57715 -3.02441 -15.3896 -3.02441 -23.5781c0 -3.65625 0.208984 -7.26367 0.614258 -10.8115l-35.1992 -29c-1.57031 -1.33301 -3.60645 -2.14551 -5.8252 -2.14551
c-4.9668 0 -9 4.03223 -9 9c0 0.657227 0.0703125 1.29785 0.205078 1.91504l15.4395 76.6797c0.123047 0.592773 0.178711 1.19922 0.178711 1.82715c0 4.69043 -3.5957 8.54785 -8.17871 8.96289l-77.8594 7.55078c-4.62305 0.375 -8.28125 4.24512 -8.28125 8.96484
c0 3.17773 1.65039 5.97266 4.14062 7.57422l65.1299 43.3008c2.44629 1.62305 4.04785 4.40234 4.04785 7.55469c0 2.17578 -0.767578 4.17285 -2.04785 5.73535l-49.71 60.4092c-1.28516 1.56348 -2.06738 3.56934 -2.06738 5.74902
c0 4.99512 4.05566 9.0498 9.0498 9.0498c0.616211 0 1.2168 -0.0615234 1.79785 -0.178711l76.6797 -15.4395c0.582031 -0.117188 1.17676 -0.169922 1.79297 -0.169922c4.69727 0 8.56445 3.58691 9.00781 8.16992l7.5498 77.8594
c0.439453 4.58691 4.30273 8.19629 9.00293 8.19629c3.14941 0 5.92578 -1.6123 7.54688 -4.05566l43.2998 -65.0898c1.62305 -2.44629 4.40234 -4.04785 7.55566 -4.04785c2.1748 0 4.17188 0.767578 5.73438 2.04785l60.4004 49.71
c1.56934 1.33203 3.60645 2.14453 5.82422 2.14453c4.9668 0 9 -4.03223 9 -9c0 -0.657227 -0.0703125 -1.29785 -0.204102 -1.91504l-11.3301 -56.1602c-2.70996 -3.0498 -5.43066 -6.08984 -7.91016 -9.39941l-32.1504 -43zM548.11 3
c5.13477 -1.33398 10.5605 -2.01172 16.1104 -2.01172c13.04 0 25.1709 3.91895 35.2793 10.6416c-0.158203 -1.75 -0.458008 -3.47949 -0.879883 -5.13965l-12 -46.4902c-3.55371 -13.7988 -16.0752 -24.0156 -30.9766 -24.0156
c-2.77051 0 -5.45898 0.352539 -8.02344 1.01562l-31 8c-13.7988 3.55371 -24.0156 16.0752 -24.0156 30.9766c0 2.77051 0.352539 5.45898 1.01562 8.02344l8 31zM207.2 90.6396l46.54 -12.04l-8 -31c-3.55371 -13.7988 -16.0752 -24.0156 -30.9766 -24.0156
c-2.77051 0 -5.45898 0.352539 -8.02344 1.01562l-31 8c-13.7988 3.55371 -24.0166 16.0752 -24.0166 30.9775c0 2.76953 0.353516 5.45898 1.0166 8.02246l11.9502 46.4707c0.435547 1.68848 1.01855 3.36035 1.70996 4.92969
c8.27734 -15.9062 23.0479 -27.8242 40.7998 -32.3604z" />
    <glyph glyph-name="car-garage-secondary" unicode="&#x10f5e2;" 
d="M428.07 193.82l13.5293 -33.8203h-243.199l13.5293 33.8203c7.0752 17.6934 24.3633 30.1797 44.5703 30.1797h127c20.207 0 37.4951 -12.4863 44.5703 -30.1797zM152 0h56v-32c0 -17.6611 -14.3389 -32 -32 -32h-32c-17.6611 0 -32 14.3389 -32 32v46.0596
c10.9199 -8.78027 24.833 -14.0596 39.9219 -14.0596h0.078125zM631.76 279.77c4.92969 -2.72754 8.24414 -7.98828 8.24414 -14.0166c0 -2.81152 -0.727539 -5.45508 -2.00391 -7.75293l-7.7998 -14c-2.72461 -4.94238 -7.99219 -8.26758 -14.0303 -8.26758
c-2.81445 0 -5.46094 0.728516 -7.75977 2.00781l-288.41 158.729l-288.41 -158.689c-2.30273 -1.28516 -4.96191 -2.04395 -7.78418 -2.04395c-6.02539 0 -11.2773 3.33789 -14.0059 8.26367l-7.7998 14c-1.27637 2.29785 -2.03027 4.94824 -2.03027 7.75977
c0 6.02832 3.34082 11.2822 8.27051 14.0098l300.09 165.23c3.44922 1.91992 7.4707 3.01367 11.6953 3.01367s8.19531 -1.09375 11.6445 -3.01367zM488 0c0.0263672 0 0.0947266 0.0234375 0.121094 0.0234375c15.0889 0 28.959 5.25586 39.8789 14.0361v-46.0596
c0 -17.6611 -14.3389 -32 -32 -32h-32c-17.6611 0 -32 14.3389 -32 32v32h56z" />
    <glyph glyph-name="car-mechanic-secondary" unicode="&#x10f5e3;" horiz-adv-x="512" 
d="M144 0v-32c0 -17.6611 -14.3389 -32 -32 -32h-32c-17.6611 0 -32 14.3389 -32 32v46.0596c10.9199 -8.78027 24.79 -14.0361 39.8789 -14.0361c0.0263672 0 0.0947266 -0.0234375 0.121094 -0.0234375h56zM319.5 224c20.207 0 37.4951 -12.4863 44.5703 -30.1797
l13.5293 -33.8203h-243.199l13.5293 33.8301c7.07715 17.6885 24.3672 30.1699 44.5703 30.1699h127zM424 0c0.0263672 0 0.0947266 0.0234375 0.121094 0.0234375c15.0889 0 28.959 5.25586 39.8789 14.0361v-46.0596c0 -17.6611 -14.3389 -32 -32 -32h-32
c-17.6611 0 -32 14.3389 -32 32v32h56zM503.91 344c4.45898 0 8.07715 -3.62793 8.07715 -8.08789c0 -1.27051 -0.293945 -2.47266 -0.817383 -3.54199c-12.9482 -26.2969 -39.9658 -44.3408 -71.2295 -44.3701c-32.7402 0 -60.5605 19.8301 -72.9404 48h-222.32
c-10.2695 -23.5098 -31.3496 -41.6504 -57 -46.5098c-5.03223 -1 -10.1279 -1.60059 -15.4521 -1.60059c-31.3125 0 -58.4229 18.1377 -71.3877 44.4707c-0.522461 1.06934 -0.820312 2.2793 -0.820312 3.5498c0 4.45801 3.61426 8.0791 8.07031 8.08984h56l24 24l-24 24
h-56c-4.45312 0.0136719 -8.06055 3.64062 -8.06055 8.09766c0 1.26562 0.291016 2.46484 0.810547 3.53223c12.9482 26.2969 39.9668 44.3408 71.2305 44.3701c32.7393 0 60.5596 -19.8301 72.9297 -48h222.26c10.3301 23.5098 31.4004 41.6504 57.0498 46.5098
c5.03613 1.00098 10.1348 1.60254 15.4619 1.60254c31.3135 0 58.4238 -18.1387 71.3887 -44.4727c0.522461 -1.06934 0.820312 -2.2793 0.820312 -3.5498c0 -4.45801 -3.61426 -8.0791 -8.07031 -8.08984h-56l-24 -24l24 -24h56z" />
    <glyph glyph-name="car-side-secondary" unicode="&#x10f5e4;" 
d="M144 128c44.1533 0 80 -35.8467 80 -80s-35.8467 -80 -80 -80s-80 35.8467 -80 80s35.8467 80 80 80zM496 128c44.1533 0 80 -35.8467 80 -80s-35.8467 -80 -80 -80s-80 35.8467 -80 80s35.8467 80 80 80zM369.24 352l76.7598 -96h-166v96h89.2402zM116.93 256
l38.4004 96h76.6699v-96h-115.07z" />
    <glyph glyph-name="car-tilt-secondary" unicode="&#x10f5e5;" 
d="M519.94 317c1.43262 -1.02051 2.75391 -2.13477 4 -3.37012l33.9395 -33.9395c5.79395 -5.79297 9.37988 -13.7939 9.37988 -22.626s-3.58594 -16.8418 -9.37988 -22.6348l-22.6299 -22.6201c-5.79199 -5.79004 -13.791 -9.37402 -22.6201 -9.37402
c-8.83008 0 -16.8379 3.58398 -22.6299 9.37402l-22.6299 22.6201l33.9395 33.9502c11.5713 11.5488 18.7344 27.5117 18.7344 45.1348c0 1.18359 -0.0400391 2.31836 -0.103516 3.48535zM293.57 380l49.3096 -21.1699l-181 -181l-21.1396 49.3203
c-2.4834 5.79395 -3.8877 12.2148 -3.8877 18.9131c0 13.2471 5.37793 25.248 14.0674 33.9365l89.7998 89.8203c8.68848 8.68945 20.7314 14.0381 33.9775 14.0381c6.69922 0 13.0791 -1.375 18.873 -3.8584zM624 0c8.83105 0 16 -7.16895 16 -16v-32
c0 -8.83105 -7.16895 -16 -16 -16h-608c-8.83105 0 -16 7.16895 -16 16v32c0 8.83105 7.16895 16 16 16h188.42c-0.209961 0.269531 -0.410156 0.549805 -0.610352 0.820312c1.15137 -0.0625 2.26953 -0.101562 3.43555 -0.101562c17.6416 0 33.6221 7.16992 45.1846 18.751
l33.9404 33.9404l22.6299 -22.6201c5.77148 -5.79004 9.33398 -13.7695 9.33398 -22.582c0 -2.83691 -0.370117 -5.58789 -1.06445 -8.20801h306.73z" />
    <glyph glyph-name="clipboard-prescription-secondary" unicode="&#x10f5e8;" horiz-adv-x="384" 
d="M336 385c26.4922 0 48 -21.5078 48 -48v-352c0 -26.4922 -21.5078 -48 -48 -48h-288c-26.4922 0 -48 21.5078 -48 48v352c0 26.4922 21.5078 48 48 48h80c-35.3223 0 -64 -28.6777 -64 -64h256c0 35.3223 -28.6777 64 -64 64h80zM304 16
c2.89355 2.89551 4.68457 6.89844 4.68457 11.3125c0 4.41309 -1.79102 8.41211 -4.68457 11.3076l-30.0703 30.0596l29.9004 29.9004c2.89648 2.89648 4.68945 6.90137 4.68945 11.3174s-1.79297 8.41602 -4.68945 11.3125l-11.2998 11.3096
c-2.89648 2.89746 -6.90137 4.69043 -11.3174 4.69043s-8.41699 -1.79297 -11.3125 -4.69043l-29.9004 -29.8994l-33.46 33.46c19.9531 10.7891 33.4561 31.8633 33.4561 56.1201c0 35.2119 -28.5869 63.7998 -63.7998 63.7998h-0.196289h-80
c-8.83105 0 -16 -7.16895 -16 -16v-160c0 -8.83105 7.16895 -16 16 -16h16c8.83105 0 16 7.16895 16 16v48h18.7402l59.3193 -59.3096l-30.0596 -30.0605c-2.89648 -2.89648 -4.68945 -6.90137 -4.68945 -11.3174s1.79297 -8.41602 4.68945 -11.3125l11.3096 -11.3096
c2.89648 -2.89746 6.90137 -4.69043 11.3174 -4.69043s8.41699 1.79297 11.3135 4.69043l30.0596 30.0596l30.0596 -30.0596c2.89648 -2.89746 6.90137 -4.69043 11.3174 -4.69043s8.41699 1.79297 11.3135 4.69043zM192 192c0 -8.83105 -7.16895 -16 -16 -16h-48v32h48
c8.83105 0 16 -7.16895 16 -16z" />
    <glyph glyph-name="compass-slash-secondary" unicode="&#x10f5e9;" 
d="M145 367.7c44.7344 44.6846 106.489 72.334 174.65 72.334c0.107422 0 0.243164 -0.0341797 0.349609 -0.0341797c137 0 248 -111 248 -248v-0.381836c0 -45.3711 -12.4277 -88.1553 -33.8301 -124.698l-141 109l53 116
c7.61035 16.6504 -9.54004 33.7998 -26.1895 26.2002l-132.521 -60.5205zM220 65.8604l66.7695 30.4893l155.33 -120.06c-35.9268 -20.4492 -77.7422 -32.29 -122.003 -32.29h-0.0966797c-137 0 -248 111 -248 248c0.0527344 22.0508 3.02539 43.3652 8.5 63.71l139 -107.41
l-25.7002 -56.2402c-7.60938 -16.6494 9.5498 -33.8096 26.2002 -26.1992z" />
    <glyph glyph-name="diploma-secondary" unicode="&#x10f5ea;" 
d="M608.64 384.44c41.8105 -70.9404 41.8105 -217.95 -0.0400391 -288.91c-6.75 -11.5 -22 -17.8701 -37 -14.7705l-104.6 35.2402l-51.0098 87.9404v144.119c9.64941 2.44043 19.21 5.19043 28.6494 8.37012l127 42.7803c15 3.11035 30.2207 -3.26953 37 -14.7695z
M68.3896 399.22l126.96 -42.79c9.44043 -3.17969 19.0107 -5.91992 28.6504 -8.37012v-144.149l-51 -87.9102l-104.61 -35.21c-15 -3.11035 -30.2197 3.26953 -37 14.7695c-41.8096 70.8906 -41.8096 217.95 0 288.891c6.75 11.5 22 17.8701 37 14.7695z" />
    <glyph glyph-name="draw-circle-secondary" unicode="&#x10f5ed;" horiz-adv-x="512" 
d="M39.9004 251.29c20.96 75.9482 80.8613 135.85 156.81 156.81c-3.01758 -7.42676 -4.67969 -15.5459 -4.67969 -24.0508c0 -15.1133 5.24609 -29.0947 14.0195 -40.0488c-48.1152 -15.9355 -86.1182 -53.9424 -102.05 -102.06
c-10.9561 8.77734 -24.8555 14.0303 -39.9727 14.0303c-8.50098 0 -16.7031 -1.66504 -24.127 -4.68066zM320 384c0 0.0185547 -0.0273438 0.0761719 -0.0273438 0.0947266c0 8.49023 -1.66406 16.5947 -4.68262 24.0049c75.9482 -20.96 135.85 -80.8613 156.81 -156.81
c-7.42383 3.01562 -15.626 4.68066 -24.127 4.68066c-15.1172 0 -29.0166 -5.25293 -39.9727 -14.0303c-15.9219 48.1074 -53.9053 86.1113 -102 102.06c8.74414 10.9141 14 24.8037 14 39.8633v0.136719zM448 128c0.0185547 0 0.0761719 0.0273438 0.0947266 0.0273438
c8.49023 0 16.5947 1.66406 24.0049 4.68262c-20.9512 -75.9375 -80.832 -135.835 -156.76 -156.81c3.01758 7.42676 4.68359 15.6309 4.68359 24.1357c0 15.1133 -5.25 29.0098 -14.0234 39.9639c48.083 15.9365 86.0635 53.917 102 102
c10.9141 -8.74414 24.8037 -14 39.8633 -14h0.136719zM192 0c0 -0.0185547 0.0273438 -0.0761719 0.0273438 -0.0947266c0 -8.49023 1.66406 -16.5947 4.68262 -24.0049c-75.9375 20.9512 -135.835 80.832 -156.81 156.76
c7.42676 -3.01758 15.6309 -4.68359 24.1357 -4.68359c15.1133 0 29.0098 5.25 39.9639 14.0234c15.9463 -48.0928 53.9463 -86.0762 102.05 -102c-8.77441 -10.9238 -14.0498 -24.8389 -14.0498 -39.9268v-0.0732422z" />
    <glyph glyph-name="draw-polygon-secondary" unicode="&#x10f5ee;" horiz-adv-x="448" 
d="M32 87.4199v209.16c9.40039 -5.42773 20.3057 -8.53418 31.9316 -8.53418c11.625 0 22.668 3.10645 32.0684 8.53418v-209.16c-9.40039 5.42773 -20.3057 8.53418 -31.9316 8.53418c-11.625 0 -22.668 -3.10645 -32.0684 -8.53418zM119.42 384l209.23 0.0595703
c-5.43066 -9.40234 -8.56055 -20.3799 -8.56055 -32.0088c0 -34.959 28.0889 -63.4082 62.9102 -63.9912l-39 -65c-10.7617 19.3955 -31.2852 32.5586 -54.9297 32.9404l38.4102 64h-208.061c5.42773 9.40039 8.53418 20.4434 8.53418 32.0684
c0 11.626 -3.10645 22.5312 -8.53418 31.9316zM328.58 0h-209.16c5.42773 9.40039 8.53418 20.4434 8.53418 32.0684c0 11.626 -3.10645 22.5312 -8.53418 31.9316h208.061l-38.4102 64c23.625 0.419922 44.123 13.5996 54.8594 33l39 -65
c-34.8203 -0.582031 -62.8887 -29.1006 -62.8887 -64.0596c0 -11.6289 3.1084 -22.5381 8.53906 -31.9404z" />
    <glyph glyph-name="draw-square-secondary" unicode="&#x10f5ef;" horiz-adv-x="448" 
d="M32 87.4199v209.16c9.40039 -5.42773 20.3057 -8.53418 31.9316 -8.53418c11.625 0 22.668 3.10645 32.0684 8.53418v-209.16c-9.40039 5.42773 -20.3057 8.53418 -31.9316 8.53418c-11.625 0 -22.668 -3.10645 -32.0684 -8.53418zM119.42 384h209.16
c-5.42773 -9.40039 -8.53418 -20.4434 -8.53418 -32.0684c0 -11.626 3.10645 -22.5312 8.53418 -31.9316h-209.16c5.42773 9.40039 8.53418 20.4434 8.53418 32.0684c0 11.626 -3.10645 22.5312 -8.53418 31.9316zM384 288
c0.0253906 0 0.118164 0.0400391 0.144531 0.0400391c11.6016 0 22.4834 3.10938 31.8555 8.54004v-209.16c-9.40039 5.42773 -20.4434 8.53418 -32.0684 8.53418c-11.626 0 -22.5312 -3.10645 -31.9316 -8.53418v209.16
c9.37207 -5.43066 20.3203 -8.58008 31.9229 -8.58008h0.0771484zM328.58 0h-209.16c5.42773 9.40039 8.53418 20.4434 8.53418 32.0684c0 11.626 -3.10645 22.5312 -8.53418 31.9316h209.16c-5.42773 -9.40039 -8.53418 -20.4434 -8.53418 -32.0684
c0 -11.626 3.10645 -22.5312 8.53418 -31.9316z" />
    <glyph glyph-name="ear-secondary" unicode="&#x10f5f0;" horiz-adv-x="384" 
d="M192 448c106 0 192 -86 192 -192c0 -71 -38.6699 -132.89 -96 -166.1v-9.90039c0 -79.4756 -64.5244 -144 -144 -144s-144 64.5244 -144 144v176c0 106 86 192 192 192zM320 248v8c0 70.6455 -57.3545 128 -128 128s-128 -57.3545 -128 -128
c0.0332031 -35.3076 28.6924 -63.9668 64 -64h32c17.6611 0 32 -14.3389 32 -32s-14.3389 -32 -32 -32h-8c-4.41504 0 -8 -3.58496 -8 -8v-16c0 -4.41504 3.58496 -8 8 -8h8c35.3223 0 64 28.6777 64 64s-28.6777 64 -64 64h-32c-17.6611 0 -32 14.3389 -32 32
c0 52.9834 43.0166 96 96 96s96 -43.0166 96 -96v-8c0 -4.41504 3.58496 -8 8 -8h16c4.41504 0 8 3.58496 8 8z" />
    <glyph glyph-name="engine-warning-secondary" unicode="&#x10f5f2;" 
d="M320 416c123.7 0 224 -100.24 224 -224s-100.3 -224 -224 -224s-224 100.3 -224 224s100.3 224 224 224zM320 64c17.6611 0 32 14.3389 32 32s-14.3389 32 -32 32s-32 -14.3389 -32 -32s14.3389 -32 32 -32zM358.24 302.41
c0.0527344 0.52832 0.0791016 1.04785 0.0791016 1.58984c0 8.83008 -7.16895 16 -15.999 16h-44.6406c-8.81152 -0.0224609 -15.959 -7.16699 -15.959 -15.9834c0 -0.541992 0.0263672 -1.07812 0.0791016 -1.60645l12.7998 -128
c0.806641 -8.07715 7.63184 -14.4102 15.9199 -14.4102h19c8.28906 0 15.1143 6.33301 15.9209 14.4102z" />
    <glyph glyph-name="gas-pump-slash-secondary" unicode="&#x10f5f4;" 
d="M442.3 387.8c-2.87402 2.90234 -4.64941 6.89453 -4.64941 11.2979s1.77539 8.40039 4.64941 11.3027l11.2998 11.2998c2.90234 2.87402 6.89453 4.64941 11.2979 4.64941s8.40039 -1.77539 11.3027 -4.64941l81 -81c11.6045 -11.5947 18.7832 -27.6201 18.7998 -45.2998
v-223.4v-0.0556641c0 -11.333 -2.68555 -22.1211 -7.38965 -31.6445l-40.6104 31.4004v161.1c-27.042 3.86523 -47.9258 27.1143 -48 55.2002v62.0996zM370 32h-274v211.79zM160 356.11l-61 47.1699c8.21094 25.8877 32.4189 44.6748 61 44.7197h160
c35.3076 -0.0332031 63.9668 -28.6924 64 -64v-192h8c46.9023 -0.00195312 85.2852 -36.8457 87.8604 -83.1104l-190.33 147.11h30.4697v128h-160v-27.8896zM400 0c8.83105 0 16 -7.16895 16 -16v-32c0 -8.83105 -7.16895 -16 -16 -16h-320c-8.83105 0 -16 7.16895 -16 16
v32c0 8.83105 7.16895 16 16 16h320z" />
    <glyph glyph-name="glasses-alt-secondary" unicode="&#x10f5f5;" horiz-adv-x="576" 
d="M136 176c39.7178 -0.0439453 71.9561 -32.2822 72 -72c0 -39.7383 -32.2617 -72 -72 -72s-72 32.2617 -72 72s32.2617 72 72 72zM440 176c39.7178 -0.0439453 71.9561 -32.2822 72 -72c0 -39.7383 -32.2617 -72 -72 -72s-72 32.2617 -72 72s32.2617 72 72 72z" />
    <glyph glyph-name="heart-rate-secondary" unicode="&#x10f5f8;" 
d="M640 208v-32c0 -8.83105 -7.16895 -16 -16 -16h-124.22l-55.1504 -110.3c-5.24902 -10.5068 -16.1104 -17.7285 -28.6445 -17.7285c-14.7471 0 -27.1543 10.0371 -30.8555 23.6182l-61.3896 225.12l-68.4404 -319.4
c-3.00781 -14.1074 -15.3408 -24.8086 -30.2197 -25.3096h-1.08984c-14.6006 0.0078125 -26.9229 9.82031 -30.75 23.2002l-57.3799 200.8h-119.86c-8.83105 0 -16 7.16895 -16 16v32c0 8.83105 7.16895 16 16 16h144c14.6074 0 26.9414 -9.81445 30.7695 -23.2002
l28.79 -100.8l69.1406 322.7c3.07812 14.4551 15.9307 25.3125 31.2988 25.3125c14.7568 0 27.1895 -9.99805 30.8809 -23.5928l73.9502 -271.2l26.54 53.0898c5.25098 10.5029 16.1094 17.7217 28.6406 17.7217l-0.0107422 -0.03125h144c8.83105 0 16 -7.16895 16 -16z" />
    <glyph glyph-name="inhaler-secondary" unicode="&#x10f5f9;" 
d="M32 0c17.6611 0 32 -14.3389 32 -32s-14.3389 -32 -32 -32s-32 14.3389 -32 32s14.3389 32 32 32zM128 144c17.6611 0 32 -14.3389 32 -32s-14.3389 -32 -32 -32s-32 14.3389 -32 32s14.3389 32 32 32zM32 192c17.6611 0 32 -14.3389 32 -32s-14.3389 -32 -32 -32
s-32 14.3389 -32 32s14.3389 32 32 32zM32 96c17.6611 0 32 -14.3389 32 -32s-14.3389 -32 -32 -32s-32 14.3389 -32 32s14.3389 32 32 32zM128 48c17.6611 0 32 -14.3389 32 -32s-14.3389 -32 -32 -32s-32 14.3389 -32 32s14.3389 32 32 32zM616.27 410
c13.6514 -3.6543 23.7217 -16.1055 23.7217 -30.9014c0 -2.87305 -0.379883 -5.65918 -1.09082 -8.30859l-46.29 -172.79l-168.74 168.75l15.4102 57.5195c3.65625 13.6484 16.1055 23.7168 30.9004 23.7168c2.86621 0 5.64453 -0.37793 8.28906 -1.08594z" />
    <glyph glyph-name="kidneys-secondary" unicode="&#x10f5fb;" 
d="M402.73 248.28c8.5293 -10 16.5 -24.6201 11.5791 -41.5605l-2.12988 -7.38965l-23.8701 -11.9404c-2.64551 -1.30078 -4.46191 -4.0166 -4.46973 -7.15918v-228.25c0 -8.83105 -7.16895 -16 -16 -16h-16c-8.83008 0 -16 7.16895 -16 16v228.21
c0 0.0332031 -0.0537109 0.0322266 -0.0537109 0.0654297c0 21.9131 12.6572 40.8945 31.0537 50.0244zM303.87 180.28l-0.0302734 -180.28v-48c0 -8.83105 -7.16895 -16 -16 -16h-16c-8.83008 0 -16 7.16895 -16 16v228.27
c-0.00195312 3.13867 -1.80566 5.85156 -4.43945 7.16016l-24.21 12.1104l-1.82031 6.49023c-4.88965 17.2598 3.08984 32.1396 11.6602 42.2598l35.8398 -17.9199c18.3945 -9.11133 31 -28.0439 31 -49.9463v-0.143555z" />
    <glyph glyph-name="laptop-code-secondary" unicode="&#x10f5fc;" 
d="M528 448c26.4561 -0.0771484 47.9229 -21.5439 48 -48v-336h-512v336c0.0771484 26.4561 21.5439 47.9229 48 48h416zM512 128v256h-384v-256h384z" />
    <glyph glyph-name="layer-group-secondary" unicode="&#x10f5fd;" horiz-adv-x="512" 
d="M12.4102 211.69l58.0996 26.3096l161.63 -73.2695c7.25977 -3.30176 15.3232 -5.14062 23.8125 -5.14062s16.6484 1.83887 23.9082 5.14062l161.64 73.2695l58.0898 -26.3301c16.5498 -7.5 16.5498 -32.5 0 -40l-232.95 -105.57
c-3.23828 -1.47461 -6.83496 -2.29688 -10.623 -2.29688s-7.42871 0.822266 -10.667 2.29688l-232.939 105.591c-16.5498 7.5 -16.5498 32.5 0 40z" />
    <glyph glyph-name="layer-minus-secondary" unicode="&#x10f5fe;" horiz-adv-x="512" 
d="M12.4102 211.7l233 105.58c3.23828 1.47461 6.83594 2.29688 10.623 2.29688c3.78809 0 7.42871 -0.822266 10.667 -2.29688l232.89 -105.58c16.5498 -7.5 16.5498 -32.5 0 -40l-232.95 -105.59c-3.23828 -1.47559 -6.83496 -2.29688 -10.623 -2.29688
s-7.42871 0.821289 -10.667 2.29688l-232.939 105.59c-16.5498 7.5 -16.5498 32.5 0 40z" />
    <glyph glyph-name="layer-plus-secondary" unicode="&#x10f5ff;" horiz-adv-x="512" 
d="M400 160c16.7305 0 32.6797 2.91016 48 7.29004v-18.5801l-181.36 -82.2002c-3.23828 -1.47461 -6.83496 -2.29688 -10.623 -2.29688s-7.42871 0.822266 -10.667 2.29688l-232.939 105.59c-16.5498 7.5 -16.5498 32.5 0 40l213.87 97
c13 -84.4199 85.7197 -149.1 173.72 -149.1z" />
    <glyph glyph-name="lips-secondary" unicode="&#x10f600;" 
d="M639.88 224c0.0654297 -1.17676 0.0986328 -2.3623 0.0986328 -3.55469c0 -8.68848 -1.79199 -16.9629 -4.97852 -24.4951c-28 -66.46 -112.6 -227.95 -274.29 -227.95h-81.4297c-161.69 0 -246.28 161.49 -274.28 227.94
c-3.1875 7.52539 -4.9502 15.7979 -4.9502 24.4795c0 1.20312 0.00292969 2.39355 0.0703125 3.58008h63.8799s85.3398 -96 256 -96s256 96 256 96h63.8799z" />
    </font>
</defs>
</svg>
